Вы используете незарегистрированную версию компонента "Вкладки"!

Поиск

(Free Improvisation / Avant-Garde) Herculaneum - Herculaneum III - 2009, FLAC (image+.cue) lossless

Треклист:
Herculaneum / Herculaneum III

Жанр: Free Improvisation / Avant-Garde
Страна-производитель диска: Portugal
Год издания диска: 2009
Издатель (лейбл): Clean Feed
Номер по каталогу: CF140
Страна: USA
Аудио кодек: FLAC (*.flac)
Тип рипа: image+.cue
Битрейт аудио: lossless
Продолжительность: 52:28
Источник (релизер): собственный рип
Наличие сканов в содержимом раздачи: нет
1. The Sparrow
2. Prosecco/mcv
3. Italian Ice
4. Golden Monarch
5. Eyeball
6. Lavender Panther
7. Egyptian Femme
8. Red Dawn
9. Mahogany
 
Лог создания рипа
Exact Audio Copy V0.99 prebeta 4 from 23. January 2008
EAC extraction logfile from 27. June 2010, 19:09
Herculaneum / Herculaneum III
Used drive : TSSTcorpCD/DVDW SH-S182M Adapter: 2 ID: 1
Read mode : Secure
Utilize accurate stream : Yes
Defeat audio cache : Yes
Make use of C2 pointers : No
Read offset correction : 6
Overread into Lead-In and Lead-Out : No
Fill up missing offset samples with silence : Yes
Delete leading and trailing silent blocks : No
Null samples used in CRC calculations : Yes
Used interface : Installed external ASPI interface
Used output format : User Defined Encoder
Selected bitrate : 1024 kBit/s
Quality : High
Add ID3 tag : No
Command line compressor : C:\Program Files\Exact Audio Copy\Flac\flac.exe
Additional command line options : -6 -V -T "ARTIST=%a" -T "TITLE=%t" -T "ALBUM=%g" -T "DATE=%y" -T "TRACKNUMBER=%n" -T "GENRE=%m" -T "COMMENT=EAC FLAC -6" %s
TOC of the extracted CD
Track | Start | Length | Start sector | End sector
---------------------------------------------------------
1 | 0:00.00 | 5:27.56 | 0 | 24580
2 | 5:27.56 | 6:15.49 | 24581 | 52754
3 | 11:43.30 | 5:17.16 | 52755 | 76545
4 | 17:00.46 | 6:22.27 | 76546 | 105222
5 | 23:22.73 | 8:22.34 | 105223 | 142906
6 | 31:45.32 | 6:07.12 | 142907 | 170443
7 | 37:52.44 | 2:43.48 | 170444 | 182716
8 | 40:36.17 | 6:38.17 | 182717 | 212583
9 | 47:14.34 | 5:13.53 | 212584 | 236111
Range status and errors
Selected range
Filename C:\Users\Igor\Music\eac\Herculaneum - Herculaneum III.wav
Peak level 100.0 %
Range quality 100.0 %
Test CRC 816017C7
Copy CRC 816017C7
Copy OK
No errors occurred
AccurateRip summary
Track 1 not present in database
Track 2 not present in database
Track 3 not present in database
Track 4 not present in database
Track 5 not present in database
Track 6 not present in database
Track 7 not present in database
Track 8 not present in database
Track 9 not present in database
None of the tracks are present in the AccurateRip database
End of status report
 
Состав
John Beard: guitar
David McDonnell: alto sax, clarinet
Nick Broste: trombone
Patrick Newbery: trumpet, flugelhorn
Nate Lepine: flute
Greg Danek: bass
Dylan Ryan: drums, vibraphone
По всем вопросам пишите личное сообщение пользователю M0p94ok.
03:28
162
Нет комментариев. Ваш будет первым!