Вы используете незарегистрированную версию компонента "Вкладки"!

Поиск

(Avant-Garde, Free Improvisation) Matt Brubeck, Nick Fraser, Marilyn Lerner - Ugly Beauties - 2009, FLAC (tracks+.cue) lossless

Треклист:
Matt Brubeck, Nick Fraser, Marilyn Lerner / Ugly Beauties
Жанр: Avant-Garde, Free Improvisation
Год издания диска: 2009
Издатель (лейбл): Ambiances Magnetiques
Номер по каталогу: AM 187
Аудио кодек: FLAC (*.flac)
Тип рипа: tracks+.cue
Битрейт аудио: lossless
Продолжительность: 55:03
Источник (релизер): what.cd (suspar)
Наличие сканов в содержимом раздачи: нет
Треклист:
01 Windsor (Brubeck, Fraser, Lerner) 3m18s
02 Oubliette (Lerner) 4m53s
03 Harold Lloyd (Lerner) 4m43s
04 Minimalism (Fraser) 2m46s
05 Faux Amis (Brubeck, Fraser) 1m38s
06 Zoetrope (Brubeck, Fraser, Lerner) 9m01s
07 Wallflower (Fraser, Lerner) 2m42s
08 Ding an Sich (Lerner) 3m05s
09 Be Done (Brubeck, Fraser) 1m28s
10 Also (Fraser) 2m30s
11 In a Hurry (Brubeck) 4m36s
12 Figure and Ground (Lerner) 6m14s
13 Corde lisse (Brubeck, Lerner) 4m12s
14 Tombe (Brubeck, Fraser, Lerner) 2m11s
15 Premonition (Brubeck, Fraser, Lerner) 1m45s
 
Лог создания рипа
Exact Audio Copy V0.99 prebeta 5 from 4. May 2009
EAC extraction logfile from 7. April 2010, 21:58
Matt Brubeck, Nick Fraser, Marilyn Lerner / Ugly Beauties
Used drive : _NEC DVD_RW ND-3540A Adapter: 1 ID: 0
Read mode : Secure
Utilize accurate stream : Yes
Defeat audio cache : Yes
Make use of C2 pointers : No
Read offset correction : 48
Overread into Lead-In and Lead-Out : No
Fill up missing offset samples with silence : Yes
Delete leading and trailing silent blocks : No
Null samples used in CRC calculations : Yes
Used interface : Native Win32 interface for Win NT & 2000
Gap handling : Appended to previous track
Used output format : User Defined Encoder
Selected bitrate : 768 kBit/s
Quality : High
Add ID3 tag : No
Command line compressor : C:\Program Files\Exact Audio Copy\FLAC\FLAC.EXE
Additional command line options : -8 -V -T "ARTIST=%a" -T "TITLE=%t" -T "ALBUM=%g" -T "DATE=%y" -T "TRACKNUMBER=%n" -T "GENRE=%m" -T "COMMENT=%e" %s -o %d
TOC of the extracted CD
Track | Start | Length | Start sector | End sector
---------------------------------------------------------
1 | 0:00.00 | 3:18.24 | 0 | 14873
2 | 3:18.24 | 4:53.31 | 14874 | 36879
3 | 8:11.55 | 4:43.27 | 36880 | 58131
4 | 12:55.07 | 2:46.29 | 58132 | 70610
5 | 15:41.36 | 1:37.68 | 70611 | 77953
6 | 17:19.29 | 9:01.27 | 77954 | 118555
7 | 26:20.56 | 2:42.29 | 118556 | 130734
8 | 29:03.10 | 3:04.43 | 130735 | 144577
9 | 32:07.53 | 1:28.26 | 144578 | 151203
10 | 33:36.04 | 2:29.48 | 151204 | 162426
11 | 36:05.52 | 4:35.58 | 162427 | 183109
12 | 40:41.35 | 6:13.65 | 183110 | 211149
13 | 46:55.25 | 4:11.66 | 211150 | 230040
14 | 51:07.16 | 2:11.06 | 230041 | 239871
15 | 53:18.22 | 1:44.61 | 239872 | 247732
Track 1
Filename E:\torrents\Matt Brubeck, Nick Fraser, Marilyn Lerner - 2009 - Ugly Beauties\01 Windsor.wav
Pre-gap length 0:00:02.00
Peak level 99.9 %
Track quality 100.0 %
Test CRC D6394D2C
Copy CRC D6394D2C
Track not present in AccurateRip database
Copy OK
Track 2
Filename E:\torrents\Matt Brubeck, Nick Fraser, Marilyn Lerner - 2009 - Ugly Beauties\02 Oubliette.wav
Pre-gap length 0:00:00.37
Peak level 99.9 %
Track quality 100.0 %
Test CRC 7DAE2446
Copy CRC 7DAE2446
Track not present in AccurateRip database
Copy OK
Track 3
Filename E:\torrents\Matt Brubeck, Nick Fraser, Marilyn Lerner - 2009 - Ugly Beauties\03 Harold Lloyd.wav
Pre-gap length 0:00:03.63
Peak level 99.9 %
Track quality 100.0 %
Test CRC D4BF5E7B
Copy CRC D4BF5E7B
Track not present in AccurateRip database
Copy OK
Track 4
Filename E:\torrents\Matt Brubeck, Nick Fraser, Marilyn Lerner - 2009 - Ugly Beauties\04 Minimalism.wav
Pre-gap length 0:00:02.62
Peak level 99.9 %
Track quality 99.9 %
Test CRC 4E10A7E9
Copy CRC 4E10A7E9
Track not present in AccurateRip database
Copy OK
Track 5
Filename E:\torrents\Matt Brubeck, Nick Fraser, Marilyn Lerner - 2009 - Ugly Beauties\05 Faux Amis.wav
Pre-gap length 0:00:01.73
Peak level 34.6 %
Track quality 100.0 %
Test CRC 3BCD6146
Copy CRC 3BCD6146
Track not present in AccurateRip database
Copy OK
Track 6
Filename E:\torrents\Matt Brubeck, Nick Fraser, Marilyn Lerner - 2009 - Ugly Beauties\06 Zoetrope.wav
Peak level 97.9 %
Track quality 100.0 %
Test CRC 52EB4843
Copy CRC 52EB4843
Track not present in AccurateRip database
Copy OK
Track 7
Filename E:\torrents\Matt Brubeck, Nick Fraser, Marilyn Lerner - 2009 - Ugly Beauties\07 Wallflower.wav
Pre-gap length 0:00:00.48
Peak level 99.8 %
Track quality 99.9 %
Test CRC AD3D1F5B
Copy CRC AD3D1F5B
Track not present in AccurateRip database
Copy OK
Track 8
Filename E:\torrents\Matt Brubeck, Nick Fraser, Marilyn Lerner - 2009 - Ugly Beauties\08 Ding an Sich.wav
Pre-gap length 0:00:01.67
Peak level 99.9 %
Track quality 100.0 %
Test CRC 7FBE9933
Copy CRC 7FBE9933
Track not present in AccurateRip database
Copy OK
Track 9
Filename E:\torrents\Matt Brubeck, Nick Fraser, Marilyn Lerner - 2009 - Ugly Beauties\09 Be Gone.wav
Pre-gap length 0:00:02.40
Peak level 99.8 %
Track quality 99.8 %
Test CRC DDAA36F3
Copy CRC DDAA36F3
Track not present in AccurateRip database
Copy OK
Track 10
Filename E:\torrents\Matt Brubeck, Nick Fraser, Marilyn Lerner - 2009 - Ugly Beauties\10 Also.wav
Pre-gap length 0:00:00.67
Peak level 99.9 %
Track quality 100.0 %
Test CRC 007EBE8A
Copy CRC 007EBE8A
Track not present in AccurateRip database
Copy OK
Track 11
Filename E:\torrents\Matt Brubeck, Nick Fraser, Marilyn Lerner - 2009 - Ugly Beauties\11 In A Hurry.wav
Pre-gap length 0:00:00.38
Peak level 99.9 %
Track quality 100.0 %
Test CRC 65F1EA14
Copy CRC 65F1EA14
Track not present in AccurateRip database
Copy OK
Track 12
Filename E:\torrents\Matt Brubeck, Nick Fraser, Marilyn Lerner - 2009 - Ugly Beauties\12 Figure and Ground.wav
Pre-gap length 0:00:01.55
Peak level 99.8 %
Track quality 100.0 %
Test CRC 8E560529
Copy CRC 8E560529
Track not present in AccurateRip database
Copy OK
Track 13
Filename E:\torrents\Matt Brubeck, Nick Fraser, Marilyn Lerner - 2009 - Ugly Beauties\13 Corde Lisse.wav
Pre-gap length 0:00:00.31
Peak level 99.9 %
Track quality 100.0 %
Test CRC 78B0D32E
Copy CRC 78B0D32E
Track not present in AccurateRip database
Copy OK
Track 14
Filename E:\torrents\Matt Brubeck, Nick Fraser, Marilyn Lerner - 2009 - Ugly Beauties\14 Tombй.wav
Pre-gap length 0:00:01.41
Peak level 99.8 %
Track quality 100.0 %
Test CRC F7556647
Copy CRC F7556647
Track not present in AccurateRip database
Copy OK
Track 15
Filename E:\torrents\Matt Brubeck, Nick Fraser, Marilyn Lerner - 2009 - Ugly Beauties\15 Prйmonition.wav
Pre-gap length 0:00:00.22
Peak level 99.9 %
Track quality 100.0 %
Test CRC 0D376593
Copy CRC 0D376593
Track not present in AccurateRip database
Copy OK
None of the tracks are present in the AccurateRip database
No errors occurred
End of status report
 
Содержание индексной карты (.CUE)
REM GENRE Jazz
REM DATE 2009
REM DISCID C60CE70F
REM COMMENT "ExactAudioCopy v0.99pb5"
PERFORMER "Matt Brubeck, Nick Fraser, Marilyn Lerner"
TITLE "Ugly Beauties"
FILE "01 Windsor.wav" WAVE
TRACK 01 AUDIO
TITLE "Windsor"
PERFORMER "Matt Brubeck, Nick Fraser, Marilyn Lerner"
ISRC 000000000000
INDEX 01 00:00:00
TRACK 02 AUDIO
TITLE "Oubliette"
PERFORMER "Matt Brubeck, Nick Fraser, Marilyn Lerner"
ISRC 000000000000
INDEX 00 03:17:62
FILE "02 Oubliette.wav" WAVE
INDEX 01 00:00:00
TRACK 03 AUDIO
TITLE "Harold Lloyd"
PERFORMER "Matt Brubeck, Nick Fraser, Marilyn Lerner"
ISRC 000000000000
INDEX 00 04:49:43
FILE "03 Harold Lloyd.wav" WAVE
INDEX 01 00:00:00
TRACK 04 AUDIO
TITLE "Minimalism"
PERFORMER "Matt Brubeck, Nick Fraser, Marilyn Lerner"
ISRC 000000000000
INDEX 00 04:40:40
FILE "04 Minimalism.wav" WAVE
INDEX 01 00:00:00
TRACK 05 AUDIO
TITLE "Faux Amis"
PERFORMER "Matt Brubeck, Nick Fraser, Marilyn Lerner"
ISRC 000000000000
INDEX 00 02:44:31
FILE "05 Faux Amis.wav" WAVE
INDEX 01 00:00:00
FILE "06 Zoetrope.wav" WAVE
TRACK 06 AUDIO
TITLE "Zoetrope"
PERFORMER "Matt Brubeck, Nick Fraser, Marilyn Lerner"
ISRC 000000000000
INDEX 01 00:00:00
TRACK 07 AUDIO
TITLE "Wallflower"
PERFORMER "Matt Brubeck, Nick Fraser, Marilyn Lerner"
ISRC 000000000000
INDEX 00 09:00:54
FILE "07 Wallflower.wav" WAVE
INDEX 01 00:00:00
TRACK 08 AUDIO
TITLE "Ding an Sich"
PERFORMER "Matt Brubeck, Nick Fraser, Marilyn Lerner"
ISRC 000000000000
INDEX 00 02:40:37
FILE "08 Ding an Sich.wav" WAVE
INDEX 01 00:00:00
TRACK 09 AUDIO
TITLE "Be Gone"
PERFORMER "Matt Brubeck, Nick Fraser, Marilyn Lerner"
ISRC 000000000000
INDEX 00 03:02:03
FILE "09 Be Gone.wav" WAVE
INDEX 01 00:00:00
TRACK 10 AUDIO
TITLE "Also"
PERFORMER "Matt Brubeck, Nick Fraser, Marilyn Lerner"
ISRC 000000000000
INDEX 00 01:27:34
FILE "10 Also.wav" WAVE
INDEX 01 00:00:00
TRACK 11 AUDIO
TITLE "In A Hurry"
PERFORMER "Matt Brubeck, Nick Fraser, Marilyn Lerner"
ISRC 000000000000
INDEX 00 02:29:10
FILE "11 In A Hurry.wav" WAVE
INDEX 01 00:00:00
TRACK 12 AUDIO
TITLE "Figure and Ground"
PERFORMER "Matt Brubeck, Nick Fraser, Marilyn Lerner"
ISRC 000000000000
INDEX 00 04:34:03
FILE "12 Figure and Ground.wav" WAVE
INDEX 01 00:00:00
TRACK 13 AUDIO
TITLE "Corde Lisse"
PERFORMER "Matt Brubeck, Nick Fraser, Marilyn Lerner"
ISRC 000000000000
INDEX 00 06:13:34
FILE "13 Corde Lisse.wav" WAVE
INDEX 01 00:00:00
TRACK 14 AUDIO
TITLE "Tombй"
PERFORMER "Matt Brubeck, Nick Fraser, Marilyn Lerner"
ISRC 000000000000
INDEX 00 04:10:25
FILE "14 Tombe.wav" WAVE
INDEX 01 00:00:00
TRACK 15 AUDIO
TITLE "Prйmonition"
PERFORMER "Matt Brubeck, Nick Fraser, Marilyn Lerner"
ISRC 000000000000
INDEX 00 02:10:59
FILE "15 Premonition.wav" WAVE
INDEX 01 00:00:00
 
Об альбоме (сборнике)
A quick perusal of Canadian pianist Marilyn Lerner's website presents a musician whose projects are both typically and atypically diverse. Usually range demonstrates itself in working with a large pool of other musicians; Lerner certainly has that, whether it is with the long-standing Queen Mab to the two trios under discussion here. But she also cuts a wide swathe stylistically. Her website discography is split amongst Improvisation, Jazz, Classical, Jewish Music and Audio Art. None of these are affectations; her playing in any context is sincere and persuasive.
The trio Ugly Beauties is obviously a Monk tribute band, right? Well, yes and no. When this reviewer saw the band at last summer's Vancouver International Jazz Festival, they did play a couple of his pieces. But for their eponymous debut recording, there are none, the music coming from the pen of each member or as duo or trio collaborations. And even Monk would be somewhat taken aback at the European-style openness of the playing though he would appreciate the brevity of the 15 tracks (55 minutes in total, with only one tune hefty at nine minutes). Fellow Canadians Matt Brubeck (cello) and Nick Fraser (drums) are the other two sides of the equilateral triangle and both have a breadth to their resumes that equals Lerner's. Thus Ugly Beauties may be a jazz record but one that is quite brash in revealing the layers of other musics integral to jazz' vitality. The spirit of Monk is far better served by a group that uses his individuality as inspiration rather than retreads his music for the 1000th time, though Ugly Beauties probably would do it better than most.
from the distributor. francais
Ugly Beauties is the self-titled debut CD of Toronto-based master improvisers pianist Marilyn Lerner, cellist Matt Brubeck and drummer Nick Fraser. Recorded in the summer of 2008 at the Glenn Gould Studios at CBC Toronto, the 15 tracks feature both partially written and totally improvised music with composition contributions from each member of the trio.
Ugly Beauties explores the terrain between jazz, contemporary classical music and improvisation. Piano, cello and drums interweave to create a boundless palette of texture and mood, and the breadth of sonic experimentation at times renders the three instruments indistinguishable from each other.
Lerner, Brubeck and Fraser possess an uncanny synergy and improvisational virtuosity, with allows the music to remain free as it circulates effortlessly around groove, abstract lyricism and harmonic exploration. This debut effort is a compelling listen and you should buy this CD now (if not for the music, than for the photo on the cover)!
 
Состав
Marilyn Lerner: piano
Matt Brubeck: cello
Nick Fraser: drums
Any questions -> support@pro-jazz.com. По всем вопросам пишите -> support@pro-jazz.com
03:28
128
Нет комментариев. Ваш будет первым!