Вы используете незарегистрированную версию компонента "Вкладки"!

Поиск

(Free Improvisation) Anthony Braxton - Four Compositions - 1983, FLAC (tracks+.cue), lossless

Треклист:
Anthony Braxton "Four Compositions"
Жанр: Free Improvisation
Год выпуска диска: 1983
Производитель диска: USA
Аудио кодек: FLAC
Тип рипа: tracks+.cue
Битрейт аудио: lossless
Продолжительность: 41:23
Трэклист:
1. Composition - No. 105 A 20:02
2. Composition - No. 69 M 7:14
3. Composition - No. 69 O 8:43
4. Composition - No. 69 Q 5:23
Доп. информация:
Anthony Braxton - alto & soprano saxophone, clarinet;
George Lewis - trombone;
John Lindberg - bass;
Gerry Hemingway - percussion
 
Отчёт EAC
Exact Audio Copy V0.99 prebeta 5 from 4. May 2009
Отчёт EAC об извлечении, выполненном 19. ноября 2009, 20:48
Anthony Braxton / Four Compositions (Quartet 1983)
Дисковод: _NEC DVD_RW ND-4570A Adapter: 1 ID: 0
Режим чтения : Достоверность
Использование точного потока : Да
Отключение кэша аудио : Да
Использование указателей C2 : Нет
Коррекция смещения при чтении : 48
Способность читать области Lead-in и Lead-out : Нет
Заполнение пропущенных сэмплов тишиной : Да
Удаление блоков с тишиной в начале и конце : Нет
При вычислениях CRC использовались нулевые сэмплы : Да
Интерфейс : Встроенный Win32-интерфейс для Win NT/2000
Обработка зазоров : Добавлено к предыдущему треку
Выходной формат : Пользовательский кодировщик
Выбранный битрейт : 768 kBit/s
Качество : Высокий
Добавление ID3-тэга : Нет
Утилита сжатия : D:\Программы\EACCCC\Exact Audio Copy\FLAC\FLAC.EXE
Дополнительные параметры : -8 -V -T "ARTIST=%a" -T "TITLE=%t" -T "ALBUM=%g" -T "DATE=%y" -T "TRACKNUMBER=%n" -T "GENRE=%m" -T "COMMENT=EAC FLAC -8" %s
TOC извлечённого CD
Трек | Старт | Длительность | Начальный сектор | Конечный сектор
---------------------------------------------------------------------
1 | 0:00.32 | 20:02.03 | 32 | 90184
2 | 20:02.35 | 7:14.20 | 90185 | 122754
3 | 27:16.55 | 8:43.57 | 122755 | 162036
4 | 36:00.37 | 5:23.25 | 162037 | 186286
Трек 1
Имя файла D:\MP3\Anthony Braxton 1983 Four Compositions\01. Anthony Braxton - Composition - No. 105 A.wav
Длина предзазора 0:00:02.32
Пиковый уровень 75.3 %
Качество трека 99.9 %
CRC теста CCAE9148
CRC копии CCAE9148
Точное извлечение (достоверность 1) [1ABDADCB]
Копирование... OK
Трек 2
Имя файла D:\MP3\Anthony Braxton 1983 Four Compositions\02. Anthony Braxton - Composition - No. 69 M.wav
Длина предзазора 0:00:03.37
Пиковый уровень 67.5 %
Качество трека 100.0 %
CRC теста 9F8E8336
CRC копии 9F8E8336
Точное извлечение (достоверность 1) [EA2EEF01]
Копирование... OK
Трек 3
Имя файла D:\MP3\Anthony Braxton 1983 Four Compositions\03. Anthony Braxton - Composition - No. 69 O.wav
Длина предзазора 0:00:02.05
Пиковый уровень 61.3 %
Качество трека 100.0 %
CRC теста 41F57514
CRC копии 41F57514
Точное извлечение (достоверность 1) [75659362]
Копирование... OK
Трек 4
Имя файла D:\MP3\Anthony Braxton 1983 Four Compositions\04. Anthony Braxton - Composition - No 69 Q.wav
Длина предзазора 0:00:03.00
Пиковый уровень 85.6 %
Качество трека 100.0 %
CRC теста 95F6A41B
CRC копии 95F6A41B
Точное извлечение (достоверность 1) [9B453D0B]
Копирование... OK
Все треки извлечены точно
Ошибок не произошло
Конец отчёта
Any questions -> support@pro-jazz.com. По всем вопросам пишите -> support@pro-jazz.com
16:47
203
Нет комментариев. Ваш будет первым!