Вы используете незарегистрированную версию компонента "Вкладки"!

Поиск

(Avant-Garde Jazz / Post-Bop) Yosuke Yamashita New York Trio feat. Joe Lovano - Kurdish Dance - 1992 [Japan 24bit Remaster 2003], FLAC (tracks+.cue), lossless

(Avant-Garde Jazz / Post-Bop) Yosuke Yamashita New York Trio feat. Joe Lovano - Kurdish Dance - 1992 [Japan 24bit Remaster 2003], FLAC (tracks+.cue), lossless
Треклист:
Yosuke Yamashita New York Trio feat. Joe Lovano - Kurdish Dance
Жанр: Avant-Garde Jazz / Post-Bop
Год выпуска : 1992
Лейбл: Verve Japan
Аудио кодек: FLAC
Тип рипа: tracks+.cue
Битрейт аудио: lossless
Продолжительность: 00:45:14
Рип: hanswurst - What CD


01. Kurdish Dance (8:11)
02. Back Yard (3:25)
03. Act 3-8 (7:39)
04. Brooklyn Express (7:18)
05. Tiny Square (3:32)
06. Subway Gig (2:49)
07. 4th Street Up (6:48)
08. K's Gift (5:33)

 
EAC
Exact Audio Copy V0.99 prebeta 5 from 4. May 2009
EAC extraction logfile from 9. August 2009, 13:12
Yosuke Yamashita New York Trio (feat. Joe Lovano) / Kurdish Dance
Used drive : PLEXTOR CD-R PREMIUM2 Adapter: 3 ID: 0
Read mode : Secure
Utilize accurate stream : Yes
Defeat audio cache : Yes
Make use of C2 pointers : No
Read offset correction : 30
Overread into Lead-In and Lead-Out : Yes
Fill up missing offset samples with silence : Yes
Delete leading and trailing silent blocks : No
Null samples used in CRC calculations : Yes
Used interface : Native Win32 interface for Win NT & 2000
Gap handling : Appended to previous track
Used output format : User Defined Encoder
Selected bitrate : 128 kBit/s
Quality : High
Add ID3 tag : No
Command line compressor : D:\Programme\EAC099\Flac\flac.exe
Additional command line options : -5 -V -T "ARTIST=%a" -T "TITLE=%t" -T "ALBUM=%g" -T "DATE=%y" -T "TRACKNUMBER=%n" -T "TOTALTRACKS=%x" -T "GENRE=%m" -T "ALBUM ARTIST=%v" -T "ALBUMARTIST=%v" -T "COMMENT=EAC V0.99 prebeta 5, Secure Mode, Test & Copy, Accurat
TOC of the extracted CD
Track | Start | Length | Start sector | End sector
---------------------------------------------------------
1 | 0:00.00 | 8:10.45 | 0 | 36794
2 | 8:10.45 | 3:25.17 | 36795 | 52186
3 | 11:35.62 | 7:38.63 | 52187 | 86599
4 | 19:14.50 | 7:18.12 | 86600 | 119461
5 | 26:32.62 | 3:32.00 | 119462 | 135361
6 | 30:04.62 | 2:48.63 | 135362 | 148024
7 | 32:53.50 | 6:47.62 | 148025 | 178611
8 | 39:41.37 | 5:32.63 | 178612 | 203574
Track 1
Filename E:\Share\Jazz\U-Z\Yosuke Yamashita New York Trio (feat. Joe Lovano) - Kurdish Dance (1992) [FLAC] {Verve Japan UCCJ-4035}\01 - Kurdish Dance.wav
Pre-gap length 0:00:02.00
Peak level 97.7 %
Track quality 100.0 %
Test CRC 50B56C4A
Copy CRC 50B56C4A
Track not present in AccurateRip database
Copy OK
Track 2
Filename E:\Share\Jazz\U-Z\Yosuke Yamashita New York Trio (feat. Joe Lovano) - Kurdish Dance (1992) [FLAC] {Verve Japan UCCJ-4035}\02 - Back Yard.wav
Pre-gap length 0:00:00.76
Peak level 39.9 %
Track quality 99.9 %
Test CRC 63302AC5
Copy CRC 63302AC5
Track not present in AccurateRip database
Copy OK
Track 3
Filename E:\Share\Jazz\U-Z\Yosuke Yamashita New York Trio (feat. Joe Lovano) - Kurdish Dance (1992) [FLAC] {Verve Japan UCCJ-4035}\03 - Act 3-8.wav
Pre-gap length 0:00:01.08
Peak level 88.9 %
Track quality 100.0 %
Test CRC C501E04F
Copy CRC C501E04F
Track not present in AccurateRip database
Copy OK
Track 4
Filename E:\Share\Jazz\U-Z\Yosuke Yamashita New York Trio (feat. Joe Lovano) - Kurdish Dance (1992) [FLAC] {Verve Japan UCCJ-4035}\04 - Brooklyn Express.wav
Peak level 99.9 %
Track quality 100.0 %
Test CRC 5F3AAB6D
Copy CRC 5F3AAB6D
Track not present in AccurateRip database
Copy OK
Track 5
Filename E:\Share\Jazz\U-Z\Yosuke Yamashita New York Trio (feat. Joe Lovano) - Kurdish Dance (1992) [FLAC] {Verve Japan UCCJ-4035}\05 - Tiny Square.wav
Peak level 56.8 %
Track quality 100.0 %
Test CRC E8586C2B
Copy CRC E8586C2B
Track not present in AccurateRip database
Copy OK
Track 6
Filename E:\Share\Jazz\U-Z\Yosuke Yamashita New York Trio (feat. Joe Lovano) - Kurdish Dance (1992) [FLAC] {Verve Japan UCCJ-4035}\06 - Subway Gig.wav
Peak level 70.3 %
Track quality 100.0 %
Test CRC F14A19FB
Copy CRC F14A19FB
Track not present in AccurateRip database
Copy OK
Track 7
Filename E:\Share\Jazz\U-Z\Yosuke Yamashita New York Trio (feat. Joe Lovano) - Kurdish Dance (1992) [FLAC] {Verve Japan UCCJ-4035}\07 - 4th Street Up.wav
Peak level 100.0 %
Track quality 100.0 %
Test CRC D268E572
Copy CRC D268E572
Track not present in AccurateRip database
Copy OK
Track 8
Filename E:\Share\Jazz\U-Z\Yosuke Yamashita New York Trio (feat. Joe Lovano) - Kurdish Dance (1992) [FLAC] {Verve Japan UCCJ-4035}\08 - K's Gift.wav
Pre-gap length 0:00:00.81
Peak level 71.3 %
Track quality 100.0 %
Test CRC E0E87F7E
Copy CRC E0E87F7E
Track not present in AccurateRip database
Copy OK
None of the tracks are present in the AccurateRip database
No errors occurred
End of status report
 
CUE
REM GENRE "Post Bop"
REM DATE 1992
REM DISCID 7C0A9A08
REM COMMENT "ExactAudioCopy v0.99pb5"
PERFORMER "Yosuke Yamashita New York Trio (feat. Joe Lovano)"
TITLE "Kurdish Dance"
FILE "01 - Kurdish Dance.wav" WAVE
TRACK 01 AUDIO
TITLE "Kurdish Dance"
PERFORMER "Yosuke Yamashita New York Trio (feat. Joe Lovano)"
INDEX 01 00:00:00
TRACK 02 AUDIO
TITLE "Back Yard"
PERFORMER "Yosuke Yamashita New York Trio (feat. Joe Lovano)"
INDEX 00 08:09:63
FILE "02 - Back Yard.wav" WAVE
INDEX 01 00:00:00
TRACK 03 AUDIO
TITLE "Act 3-8"
PERFORMER "Yosuke Yamashita New York Trio (feat. Joe Lovano)"
INDEX 00 03:24:11
FILE "03 - Act 3-8.wav" WAVE
INDEX 01 00:00:00
FILE "04 - Brooklyn Express.wav" WAVE
TRACK 04 AUDIO
TITLE "Brooklyn Express"
PERFORMER "Yosuke Yamashita New York Trio (feat. Joe Lovano)"
INDEX 01 00:00:00
FILE "05 - Tiny Square.wav" WAVE
TRACK 05 AUDIO
TITLE "Tiny Square"
PERFORMER "Yosuke Yamashita New York Trio (feat. Joe Lovano)"
INDEX 01 00:00:00
FILE "06 - Subway Gig.wav" WAVE
TRACK 06 AUDIO
TITLE "Subway Gig"
PERFORMER "Yosuke Yamashita New York Trio (feat. Joe Lovano)"
INDEX 01 00:00:00
FILE "07 - 4th Street Up.wav" WAVE
TRACK 07 AUDIO
TITLE "4th Street Up"
PERFORMER "Yosuke Yamashita New York Trio (feat. Joe Lovano)"
INDEX 01 00:00:00
TRACK 08 AUDIO
TITLE "K's Gift"
PERFORMER "Yosuke Yamashita New York Trio (feat. Joe Lovano)"
INDEX 00 06:47:01
FILE "08 - K's Gift.wav" WAVE
INDEX 01 00:00:00

Yosuke Yamashita - piano
Cecil McBee - bass
Pheeroan akLaff - drums
Joe Lovano - tenor saxophone
По всем вопросам пишите личное сообщение пользователю M0p94ok.
16:48
207
Нет комментариев. Ваш будет первым!