Вы используете незарегистрированную версию компонента "Вкладки"!

Поиск

(Free Improvisation, Altri Suoni) Le MEM(e) Trio (Yves Massy, Philippe Ehinger, Pierre-Francois Massy) - Etudes pour trio - 1999, FLAC (tracks+.cue), lossless

(Free Improvisation, Altri Suoni) Le MEM(e) Trio (Yves Massy, Philippe Ehinger, Pierre-Francois Massy) - Etudes pour trio - 1999, FLAC (tracks+.cue), lossless
Треклист:
Le MÊM(e) Trio / Études pour trio
Жанр: Free Improvisation, Altri Suoni
Страна-производитель диска: Switzerland
Год издания: 1999
Издатель (лейбл): Altri Suoni
Номер по каталогу: AS 051
Аудиокодек: FLAC (*.flac)
Тип рипа: tracks+.cue
Битрейт аудио: lossless
Продолжительность: 52:57
Источник (релизер): Max Monteiro
Наличие сканов в содержимом раздачи: да
Треклист:
01. Alhambra 1:30
02. Étude VIII pour trio 1:55
Cinq Cartes postales avec suppléments
03. Carte postale I 3:29
04. Carte postale II 2:18
05. Carte postale III 2:36
06. Carte postale IV 2:43
07. Carte postale V 1:30
08. Carte postale VI (supplément) 3:44
09. Dromadaire I 2:58
10. Dromadaire II 2:50
11. Laure 2:44
12. Un jour sans S I 0:50
13. Étude II pour trio 4:31
14. Étude IV pour trio 3:18
15. Improvisation 3:34
16. Étude VII pour trio 2:33
17. Un jour sans S II 3:43
18. Tim Tooney 3:38
19. Pour Dany B. 1:04
20. Call Me Paul 1:27
Toutes les compositions sont d’Yves Massy, sauf « Laure » : Philippe Ehinger, et « Improvisation » : Pierre-François Massy.
Concert donné au théâtre de l’Alhambra à Genève le 14 mars 1999, dans le cadre du Festival de jazz de l’AMR. Enregistré par la Radio suisse romande – Espace 2.
Pierre-François Massy – contrebasse
Philippe Ehinger – clarinettes
Yves Massy – trombone
 
Лог создания рипа
Exact Audio Copy V1.0 beta 3 from 29. August 2011
EAC extraction logfile from 15. July 2013, 12:53
Le MÊM(e) Trio / Études pour trio
Used drive : SlimtypeeNAU508 5 Adapter: 1 ID: 0
Read mode : Secure
Utilize accurate stream : Yes
Defeat audio cache : Yes
Make use of C2 pointers : No
Read offset correction : 6
Overread into Lead-In and Lead-Out : No
Fill up missing offset samples with silence : Yes
Delete leading and trailing silent blocks : No
Null samples used in CRC calculations : Yes
Used interface : Native Win32 interface for Win NT & 2000
Gap handling : Appended to previous track
Used output format : User Defined Encoder
Selected bitrate : 768 kBit/s
Quality : High
Add ID3 tag : No
Command line compressor : C:\Program Files (x86)\Exact Audio Copy\Flac\flac.exe
Additional command line options : -8 -V -T "ARTIST=%artist%" -T "TITLE=%title%" -T "ALBUM=%albumtitle%" -T "DATE=%year%" -T "TRACKNUMBER=%tracknr%" -T "GENRE=%genre%" -T "PERFORMER=%albuminterpret%" -T "COMPOSER=%composer%" %haslyrics%--tag-from-file=LYRICS="%lyricsfile%"%haslyrics% -T "ALBUMARTIST=%albumartist%" -T "DISCNUMBER=%cdnumber%" -T "TOTALDISCS=%totalcds%" -T "TOTALTRACKS=%numtracks%" -T "COMMENT=%comment%" %source% -o %dest%
TOC of the extracted CD
Track | Start | Length | Start sector | End sector
---------------------------------------------------------
1 | 0:00.00 | 1:30.30 | 0 | 6779
2 | 1:30.30 | 1:55.30 | 6780 | 15434
3 | 3:25.60 | 3:29.07 | 15435 | 31116
4 | 6:54.67 | 2:17.74 | 31117 | 41465
5 | 9:12.66 | 2:36.34 | 41466 | 53199
6 | 11:49.25 | 2:43.12 | 53200 | 65436
7 | 14:32.37 | 1:30.06 | 65437 | 72192
8 | 16:02.43 | 3:44.17 | 72193 | 89009
9 | 19:46.60 | 2:57.72 | 89010 | 102356
10 | 22:44.57 | 2:49.51 | 102357 | 115082
11 | 25:34.33 | 2:44.12 | 115083 | 127394
12 | 28:18.45 | 0:50.01 | 127395 | 131145
13 | 29:08.46 | 4:30.63 | 131146 | 151458
14 | 33:39.34 | 3:18.21 | 151459 | 166329
15 | 36:57.55 | 3:34.05 | 166330 | 182384
16 | 40:31.60 | 2:33.03 | 182385 | 193862
17 | 43:04.63 | 3:43.19 | 193863 | 210606
18 | 46:48.07 | 3:37.53 | 210607 | 226934
19 | 50:25.60 | 1:04.25 | 226935 | 231759
20 | 51:30.10 | 1:26.46 | 231760 | 238255
Track 1
Filename C:\EAC rips\01 - Alhambra.wav
Pre-gap length 0:00:02.00
Peak level 96.6 %
Extraction speed 1.6 X
Track quality 100.0 %
Test CRC CE820821
Copy CRC CE820821
Track not present in AccurateRip database
Copy OK
Track 2
Filename C:\EAC rips\02 - Étude VIII pour trio.wav
Peak level 96.6 %
Extraction speed 1.8 X
Track quality 100.0 %
Test CRC AD53E59E
Copy CRC AD53E59E
Track not present in AccurateRip database
Copy OK
Track 3
Filename C:\EAC rips\03 - Cinq Cartes postales avec suppléments - Carte postale I.wav
Peak level 64.9 %
Extraction speed 2.2 X
Track quality 100.0 %
Test CRC FC77CC27
Copy CRC FC77CC27
Track not present in AccurateRip database
Copy OK
Track 4
Filename C:\EAC rips\04 - Cinq Cartes postales avec suppléments - Carte postale II.wav
Peak level 96.6 %
Extraction speed 2.2 X
Track quality 100.0 %
Test CRC E0715728
Copy CRC E0715728
Track not present in AccurateRip database
Copy OK
Track 5
Filename C:\EAC rips\05 - Cinq Cartes postales avec suppléments - Carte postale III.wav
Peak level 96.6 %
Extraction speed 2.4 X
Track quality 100.0 %
Test CRC F1B72100
Copy CRC F1B72100
Track not present in AccurateRip database
Copy OK
Track 6
Filename C:\EAC rips\06 - Cinq Cartes postales avec suppléments - Carte postale IV.wav
Peak level 96.6 %
Extraction speed 2.5 X
Track quality 100.0 %
Test CRC E44ED52C
Copy CRC E44ED52C
Track not present in AccurateRip database
Copy OK
Track 7
Filename C:\EAC rips\07 - Cinq Cartes postales avec suppléments - Carte postale V.wav
Peak level 56.9 %
Extraction speed 2.0 X
Track quality 100.0 %
Test CRC 8B7552C6
Copy CRC 8B7552C6
Track not present in AccurateRip database
Copy OK
Track 8
Filename C:\EAC rips\08 - Cinq Cartes postales avec suppléments - Carte postale VI (supplément).wav
Peak level 96.6 %
Extraction speed 2.9 X
Track quality 100.0 %
Test CRC 65617844
Copy CRC 65617844
Track not present in AccurateRip database
Copy OK
Track 9
Filename C:\EAC rips\09 - Dromadaire I.wav
Pre-gap length 0:00:02.45
Peak level 96.6 %
Extraction speed 2.2 X
Track quality 99.9 %
Test CRC 580D79F9
Copy CRC 580D79F9
Track not present in AccurateRip database
Copy OK
Track 10
Filename C:\EAC rips\10 - Dromadaire II.wav
Peak level 96.6 %
Extraction speed 2.8 X
Track quality 100.0 %
Test CRC FDE69481
Copy CRC FDE69481
Track not present in AccurateRip database
Copy OK
Track 11
Filename C:\EAC rips\11 - Laure.wav
Peak level 62.9 %
Extraction speed 3.1 X
Track quality 100.0 %
Test CRC 163B6F65
Copy CRC 163B6F65
Track not present in AccurateRip database
Copy OK
Track 12
Filename C:\EAC rips\12 - Un jour sans S I.wav
Peak level 40.7 %
Extraction speed 2.2 X
Track quality 100.0 %
Test CRC F76F378A
Copy CRC F76F378A
Track not present in AccurateRip database
Copy OK
Track 13
Filename C:\EAC rips\13 - Étude II pour trio.wav
Peak level 96.6 %
Extraction speed 3.5 X
Track quality 100.0 %
Test CRC A9C2A6C9
Copy CRC A9C2A6C9
Track not present in AccurateRip database
Copy OK
Track 14
Filename C:\EAC rips\14 - Étude IV pour trio.wav
Peak level 96.6 %
Extraction speed 3.4 X
Track quality 100.0 %
Test CRC 40AEFA1F
Copy CRC 40AEFA1F
Track not present in AccurateRip database
Copy OK
Track 15
Filename C:\EAC rips\15 - Improvisation.wav
Peak level 82.1 %
Extraction speed 3.6 X
Track quality 100.0 %
Test CRC E1B6D78D
Copy CRC E1B6D78D
Track not present in AccurateRip database
Copy OK
Track 16
Filename C:\EAC rips\16 - Étude VII pour trio.wav
Peak level 72.5 %
Extraction speed 2.6 X
Track quality 99.9 %
Test CRC AFFA70F7
Copy CRC AFFA70F7
Track not present in AccurateRip database
Copy OK
Track 17
Filename C:\EAC rips\17 - Un jour sans S III.wav
Pre-gap length 0:00:02.45
Peak level 79.6 %
Extraction speed 3.8 X
Track quality 100.0 %
Test CRC 377ADD38
Copy CRC 377ADD38
Track not present in AccurateRip database
Copy OK
Track 18
Filename C:\EAC rips\18 - Tim Tooney.wav
Peak level 96.6 %
Extraction speed 3.8 X
Track quality 100.0 %
Test CRC C7000B10
Copy CRC C7000B10
Track not present in AccurateRip database
Copy OK
Track 19
Filename C:\EAC rips\19 - Pour Dany B..wav
Peak level 54.9 %
Extraction speed 2.9 X
Track quality 100.0 %
Test CRC 22B08D91
Copy CRC 22B08D91
Track not present in AccurateRip database
Copy OK
Track 20
Filename C:\EAC rips\20 - Call Me Paul.wav
Peak level 96.6 %
Extraction speed 3.1 X
Track quality 100.0 %
Test CRC 03602E8F
Copy CRC 03602E8F
Track not present in AccurateRip database
Copy OK
None of the tracks are present in the AccurateRip database
No errors occurred
End of status report
---- CUETools DB Plugin V2.1.4
[CTDB TOCID: qCkrAvoMint0L32fHrcUJJegqvs-] disk not present in database
Submit result: qCkrAvoMint0L32fHrcUJJegqvs- has been uploaded
==== Log checksum 22231D8735FD3274BE1BBCEC0A9E0C5022C7D236BF8221BB735F4BB3D47EF0AE ====
 
Содержание индексной карты (.CUE)
REM GENRE Jazz
REM DATE 1999
REM DISCID FD0C6814
REM COMMENT "ExactAudioCopy v1.0b3"
CATALOG 7619993000510
PERFORMER "Le MÊM(e) Trio"
TITLE "Études pour trio"
FILE "01 - Alhambra.wav" WAVE
TRACK 01 AUDIO
TITLE "Alhambra"
PERFORMER "Le MÊM(e) Trio"
FLAGS DCP
INDEX 01 00:00:00
FILE "02 - Étude VIII pour trio.wav" WAVE
TRACK 02 AUDIO
TITLE "Étude VIII pour trio"
PERFORMER "Le MÊM(e) Trio"
FLAGS DCP
INDEX 01 00:00:00
FILE "03 - Cinq Cartes postales avec suppléments - Carte postale I.wav" WAVE
TRACK 03 AUDIO
TITLE "Cinq Cartes postales avec suppléments: Carte postale I"
PERFORMER "Le MÊM(e) Trio"
FLAGS DCP
INDEX 01 00:00:00
FILE "04 - Cinq Cartes postales avec suppléments - Carte postale II.wav" WAVE
TRACK 04 AUDIO
TITLE "Cinq Cartes postales avec suppléments: Carte postale II"
PERFORMER "Le MÊM(e) Trio"
FLAGS DCP
INDEX 01 00:00:00
FILE "05 - Cinq Cartes postales avec suppléments - Carte postale III.wav" WAVE
TRACK 05 AUDIO
TITLE "Cinq Cartes postales avec suppléments: Carte postale III"
PERFORMER "Le MÊM(e) Trio"
FLAGS DCP
INDEX 01 00:00:00
FILE "06 - Cinq Cartes postales avec suppléments - Carte postale IV.wav" WAVE
TRACK 06 AUDIO
TITLE "Cinq Cartes postales avec suppléments: Carte postale IV"
PERFORMER "Le MÊM(e) Trio"
FLAGS DCP
INDEX 01 00:00:00
FILE "07 - Cinq Cartes postales avec suppléments - Carte postale V.wav" WAVE
TRACK 07 AUDIO
TITLE "Cinq Cartes postales avec suppléments: Carte postale V"
PERFORMER "Le MÊM(e) Trio"
FLAGS DCP
INDEX 01 00:00:00
FILE "08 - Cinq Cartes postales avec suppléments - Carte postale VI (supplément).wav" WAVE
TRACK 08 AUDIO
TITLE "Cinq Cartes postales avec suppléments: Carte postale VI (supplément)"
PERFORMER "Le MÊM(e) Trio"
FLAGS DCP
INDEX 01 00:00:00
TRACK 09 AUDIO
TITLE "Dromadaire I"
PERFORMER "Le MÊM(e) Trio"
FLAGS DCP
INDEX 00 03:41:47
FILE "09 - Dromadaire I.wav" WAVE
INDEX 01 00:00:00
FILE "10 - Dromadaire II.wav" WAVE
TRACK 10 AUDIO
TITLE "Dromadaire II"
PERFORMER "Le MÊM(e) Trio"
FLAGS DCP
INDEX 01 00:00:00
FILE "11 - Laure.wav" WAVE
TRACK 11 AUDIO
TITLE "Laure"
PERFORMER "Le MÊM(e) Trio"
FLAGS DCP
INDEX 01 00:00:00
FILE "12 - Un jour sans S I.wav" WAVE
TRACK 12 AUDIO
TITLE "Un jour sans S I"
PERFORMER "Le MÊM(e) Trio"
FLAGS DCP
INDEX 01 00:00:00
FILE "13 - Étude II pour trio.wav" WAVE
TRACK 13 AUDIO
TITLE "Étude II pour trio"
PERFORMER "Le MÊM(e) Trio"
FLAGS DCP
INDEX 01 00:00:00
FILE "14 - Étude IV pour trio.wav" WAVE
TRACK 14 AUDIO
TITLE "Étude IV pour trio"
PERFORMER "Le MÊM(e) Trio"
FLAGS DCP
INDEX 01 00:00:00
FILE "15 - Improvisation.wav" WAVE
TRACK 15 AUDIO
TITLE "Improvisation"
PERFORMER "Le MÊM(e) Trio"
FLAGS DCP
INDEX 01 00:00:00
FILE "16 - Étude VII pour trio.wav" WAVE
TRACK 16 AUDIO
TITLE "Étude VII pour trio"
PERFORMER "Le MÊM(e) Trio"
FLAGS DCP
INDEX 01 00:00:00
TRACK 17 AUDIO
TITLE "Un jour sans S III"
PERFORMER "Le MÊM(e) Trio"
FLAGS DCP
INDEX 00 02:30:33
FILE "17 - Un jour sans S III.wav" WAVE
INDEX 01 00:00:00
FILE "18 - Tim Tooney.wav" WAVE
TRACK 18 AUDIO
TITLE "Tim Tooney"
PERFORMER "Le MÊM(e) Trio"
FLAGS DCP
INDEX 01 00:00:00
FILE "19 - Pour Dany B..wav" WAVE
TRACK 19 AUDIO
TITLE "Pour Dany B."
PERFORMER "Le MÊM(e) Trio"
FLAGS DCP
INDEX 01 00:00:00
FILE "20 - Call Me Paul.wav" WAVE
TRACK 20 AUDIO
TITLE "Call Me Paul"
PERFORMER "Le MÊM(e) Trio"
FLAGS DCP
INDEX 01 00:00:00
Any questions -> support@pro-jazz.com. По всем вопросам пишите -> support@pro-jazz.com
16:37
169
Нет комментариев. Ваш будет первым!