Вы используете незарегистрированную версию компонента "Вкладки"!

Поиск

(Avant-Garde Jazz, Free Improvisation, FMR) Kevin Norton - Quark Bercuse (Solo Percussion Vol. I) - 2005, FLAC (tracks+.cue), lossless

(Avant-Garde Jazz, Free Improvisation, FMR) Kevin Norton - Quark Bercuse (Solo Percussion Vol. I) - 2005, FLAC (tracks+.cue), lossless
Треклист:
Kevin Norton / Quark Bercuse (Solo Percussion Vol. I)
Жанр: Avant-Garde Jazz, Free Improvisation, FMR
Страна-производитель диска: UK
Год издания: 2005
Издатель (лейбл): FMR Records
Номер по каталогу: FMRCD172-i0505
Страна: US
Аудиокодек: FLAC (*.flac)
Тип рипа: tracks+.cue
Битрейт аудио: lossless
Продолжительность: 64:41
Источник (релизер): свой фирменный диск
Наличие сканов в содержимом раздачи:
Треклист:
1 Knots 4:19
2 Number Nine, Number Nine 5:33
3 Cutting Across 1:42
4 Quark Bercuse 10:37
5 Tradition-Revision-Decision 3:41
6 Cold Day In May-Newspaper Article About The Dead In Iraq 5:01
7 User's Guide / Louie The Loop 15:17
8 At The Hands Of Charlotte Corday 7:02
9 Transformed Energy 10:53
10 Later, Gonzo 1:13
 
Лог создания рипа
Exact Audio Copy V1.0 beta 3 from 29. August 2011
EAC extraction logfile from 27. July 2013, 13:46
Kevin Norton / Quark Bercuse (Solo Percussion Vol. I)
Used drive : PIONEER DVD-RW DVR-115D Adapter: 0 ID: 0
Read mode : Secure
Utilize accurate stream : Yes
Defeat audio cache : Yes
Make use of C2 pointers : No
Read offset correction : 48
Overread into Lead-In and Lead-Out : No
Fill up missing offset samples with silence : Yes
Delete leading and trailing silent blocks : No
Null samples used in CRC calculations : Yes
Used interface : Installed external ASPI interface
Gap handling : Appended to previous track
Used output format : User Defined Encoder
Selected bitrate : 896 kBit/s
Quality : High
Add ID3 tag : No
Command line compressor : C:\Program Files\Exact Audio Copy\FLAC\FLAC.EXE
Additional command line options : -6 -V -T "ARTIST=%artist%" -T "TITLE=%title%" -T "ALBUM=%albumtitle%" -T "DATE=%year%" -T "TRACKNUMBER=%tracknr%" -T "GENRE=%genre%" -T "COMMENT=%comment%" -T "BAND=%albuminterpret%" -T "COMPOSER=%composer%" %haslyrics%--tag-from-file=LYRICS="%lyricsfile%"%haslyrics% -T "DISCNUMBER=%cdnumber%" -T "TOTALDISCS=%totalcds%" -T "TOTALTRACKS=%numtracks%" %hascover%--picture="%coverfile%"%hascover% %source% -o %dest%
TOC of the extracted CD
Track | Start | Length | Start sector | End sector
---------------------------------------------------------
1 | 0:00.00 | 4:16.64 | 0 | 19263
2 | 4:16.64 | 5:32.06 | 19264 | 44169
3 | 9:48.70 | 1:41.27 | 44170 | 51771
4 | 11:30.22 | 10:42.29 | 51772 | 99950
5 | 22:12.51 | 3:38.69 | 99951 | 116369
6 | 25:51.45 | 5:04.40 | 116370 | 139209
7 | 30:56.10 | 15:16.66 | 139210 | 207975
8 | 46:13.01 | 6:21.56 | 207976 | 236606
9 | 52:34.57 | 10:56.66 | 236607 | 285872
10 | 63:31.48 | 1:09.40 | 285873 | 291087
Track 1
Filename D:\zzz\01 - Knots.wav
Pre-gap length 0:00:02.00
Peak level 99.9 %
Extraction speed 4.6 X
Track quality 100.0 %
Test CRC 1F43BF06
Copy CRC 1F43BF06
Track not present in AccurateRip database
Copy OK
Track 2
Filename D:\zzz\02 - Number Nine, Number Nine.wav
Pre-gap length 0:00:03.00
Peak level 99.9 %
Extraction speed 5.3 X
Track quality 100.0 %
Test CRC A3B1A276
Copy CRC A3B1A276
Track not present in AccurateRip database
Copy OK
Track 3
Filename D:\zzz\03 - Cutting Across.wav
Pre-gap length 0:00:03.00
Peak level 100.0 %
Extraction speed 4.6 X
Track quality 100.0 %
Test CRC 4357AD75
Copy CRC 4357AD75
Track not present in AccurateRip database
Copy OK
Track 4
Filename D:\zzz\04 - Quark Bercuse.wav
Pre-gap length 0:00:03.00
Peak level 99.9 %
Extraction speed 6.2 X
Track quality 99.9 %
Test CRC 7D37BC41
Copy CRC 7D37BC41
Track not present in AccurateRip database
Copy OK
Track 5
Filename D:\zzz\05 - Tradition - Revision - Decision.wav
Pre-gap length 0:00:03.00
Peak level 99.9 %
Extraction speed 6.4 X
Track quality 100.0 %
Test CRC 1A673A94
Copy CRC 1A673A94
Track not present in AccurateRip database
Copy OK
Track 6
Filename D:\zzz\06 - Cold Day In May - Newspaper Article About The Dead In Iraq.wav
Pre-gap length 0:00:03.00
Peak level 91.5 %
Extraction speed 7.0 X
Track quality 100.0 %
Test CRC E3721828
Copy CRC E3721828
Track not present in AccurateRip database
Copy OK
Track 7
Filename D:\zzz\07 - User's Guide , Louie The Loop.wav
Pre-gap length 0:00:01.00
Peak level 100.0 %
Extraction speed 8.2 X
Track quality 100.0 %
Test CRC AA74308F
Copy CRC AA74308F
Track not present in AccurateRip database
Copy OK
Track 8
Filename D:\zzz\08 - At The Hands Of Charlotte Corday.wav
Pre-gap length 0:00:03.00
Peak level 100.0 %
Extraction speed 8.4 X
Track quality 100.0 %
Test CRC 17EAC7AB
Copy CRC 17EAC7AB
Track not present in AccurateRip database
Copy OK
Track 9
Filename D:\zzz\09 - Transformed Energy.wav
Pre-gap length 0:00:03.00
Peak level 100.0 %
Extraction speed 9.2 X
Track quality 100.0 %
Test CRC 1D0520B9
Copy CRC 1D0520B9
Track not present in AccurateRip database
Copy OK
Track 10
Filename D:\zzz\10 - Later, Gonzo.wav
Pre-gap length 0:00:03.00
Peak level 100.0 %
Extraction speed 6.4 X
Track quality 100.0 %
Test CRC DA11A784
Copy CRC DA11A784
Track not present in AccurateRip database
Copy OK
None of the tracks are present in the AccurateRip database
No errors occurred
End of status report
==== Log checksum 08A7491131DBA90F3A28414E69AD4A294EDA2F3FD1AE0EDCB868D8B76085A2A3 ====
 
Содержание индексной карты (.CUE)
REM GENRE Avant-Garde
REM DATE 2005
REM DISCID 920F290A
REM COMMENT "ExactAudioCopy v1.0b3"
PERFORMER "Kevin Norton"
TITLE "Quark Bercuse (Solo Percussion Vol. I)"
FILE "01 - Knots.wav" WAVE
TRACK 01 AUDIO
TITLE "Knots"
PERFORMER "Kevin Norton"
INDEX 01 00:00:00
TRACK 02 AUDIO
TITLE "Number Nine, Number Nine"
PERFORMER "Kevin Norton"
INDEX 00 04:13:64
FILE "02 - Number Nine, Number Nine.wav" WAVE
INDEX 01 00:00:00
TRACK 03 AUDIO
TITLE "Cutting Across"
PERFORMER "Kevin Norton"
INDEX 00 05:29:06
FILE "03 - Cutting Across.wav" WAVE
INDEX 01 00:00:00
TRACK 04 AUDIO
TITLE "Quark Bercuse"
PERFORMER "Kevin Norton"
INDEX 00 01:38:27
FILE "04 - Quark Bercuse.wav" WAVE
INDEX 01 00:00:00
TRACK 05 AUDIO
TITLE "Tradition - Revision - Decision"
PERFORMER "Kevin Norton"
INDEX 00 10:39:29
FILE "05 - Tradition - Revision - Decision.wav" WAVE
INDEX 01 00:00:00
TRACK 06 AUDIO
TITLE "Cold Day In May - Newspaper Article About The Dead In Iraq"
PERFORMER "Kevin Norton"
INDEX 00 03:35:69
FILE "06 - Cold Day In May - Newspaper Article About The Dead In Iraq.wav" WAVE
INDEX 01 00:00:00
TRACK 07 AUDIO
TITLE "User's Guide / Louie The Loop"
PERFORMER "Kevin Norton"
INDEX 00 05:03:40
FILE "07 - User's Guide , Louie The Loop.wav" WAVE
INDEX 01 00:00:00
TRACK 08 AUDIO
TITLE "At The Hands Of Charlotte Corday"
PERFORMER "Kevin Norton"
INDEX 00 15:13:66
FILE "08 - At The Hands Of Charlotte Corday.wav" WAVE
INDEX 01 00:00:00
TRACK 09 AUDIO
TITLE "Transformed Energy"
PERFORMER "Kevin Norton"
INDEX 00 06:18:56
FILE "09 - Transformed Energy.wav" WAVE
INDEX 01 00:00:00
TRACK 10 AUDIO
TITLE "Later, Gonzo"
PERFORMER "Kevin Norton"
INDEX 00 10:53:66
FILE "10 - Later, Gonzo.wav" WAVE
INDEX 01 00:00:00
 
Лог проверки качества
d:\>d:\aucdtect -d/-m0 d:\zzz\*.wav
auCDtect: CD records authenticity detector, version 0.8.2
Copyright (c) 2004 Oleg Berngardt. All rights reserved.
Copyright (c) 2004 Alexander Djourik. All rights reserved.
------------------------------------------------------------
Processing file: [01. Knots.wav]
------------------------------------------------------------
This track looks like CDDA with probability 43%
------------------------------------------------------------
Processing file: [02. Number Nine, Number Nine.wav]
------------------------------------------------------------
This track looks like CDDA with probability 100%
------------------------------------------------------------
Processing file: [03. Cutting Across.wav]
------------------------------------------------------------
This track looks like MPEG with probability 100%
------------------------------------------------------------
Processing file: [04. Quark Bercuse.wav]
------------------------------------------------------------
This track looks like CDDA with probability 87%
------------------------------------------------------------
Processing file: [05. Tradition - Revision - Decision.wav]
------------------------------------------------------------
This track looks like CDDA with probability 100%
------------------------------------------------------------
Processing file: [06. Cold Day In May - Newspaper Article About The Dead In Iraq.wav]
------------------------------------------------------------
This track looks like MPEG with probability 100%
------------------------------------------------------------
Processing file: [07. User's Guide - Louie The Loop.wav]
------------------------------------------------------------
This track looks like CDDA with probability 99%
------------------------------------------------------------
Processing file: [08. At The Hands Of Charlotte Corday.wav]
------------------------------------------------------------
This track looks like MPEG with probability 93%
------------------------------------------------------------
Processing file: [09. Transformed Energy.wav]
------------------------------------------------------------
This track looks like CDDA with probability 85%
------------------------------------------------------------
Processing file: [10. Later, Gonzo.wav]
------------------------------------------------------------
This track looks like MPEG with probability 90%
------------------------------------------------------------
Final Conclusion:
------------------------------------------------------------
Could not qualify the source of these tracks.
Доп. информация:
 
AAJ Review
Solo music is perhaps the most challenging kind of all. With no place to hide, it's just the musician communicating to the listener. Percussion music presents additional challenges for both the performer and audience, since untuned instruments, like drums and cymbals, lack obvious melodic qualities and tuned instruments, like marimba and xylophone, are not inherently harmonic. But percussion instruments have a vast timbral and dynamic range with which a skilled percussionist can elicit implied melodies and harmonies and present complete musical statements, not merely a barrage of rhythm.
Such is the case in the exceptional hands of Kevin Norton, who explores his concept of "total percussion in improvised music on Quark Bercuse. Norton approaches percussion music like the accomplished composer he is, freeing the drums from their traditional timekeeping role, exploiting their capabilities to craft fully realized pieces. Each composition has purpose and shape, and the results should appeal to both drummers and non-drummers.
The bouncy single-note marimba line of "Knots is punctuated with fleet multi-note flourishes, twisting the melody. Norton allows ample time and space for vibraphone notes to resonate and decay on the nuanced "Cutting Across. With an array of drum textures, sans cymbals, on "Number Nine, Number Nine, he uses a simple repeating pattern to extrapolate from and periodically rein in the tumbling momentum of the improvisations. The title track also has a recurrent melodic marimba phrase, with taut, suspenseful movement that is heightened when he breaks the line or plays in a lower register to comp for himself.
Norton's concept is most striking on "User's Guide/Louie the Loop, fifteen-plus sprawling minutes of dynamic peaks and valleys, as he moves from marimba to drum set and back without pausing or overdubbing. Playing the drum set, he mirrors the marimba pattern on cymbal for continuity, then embellishes against the established feel, artfully blurring composition and improvisation with the tuned and untuned—total percussion music that successfully stands alone.
 
Состав
Drums – Kevin Norton (tracks: 2, 5, 7)
Marimba – Kevin Norton (tracks: 1, 4, 7, 9)
Percussion – Kevin Norton (tracks: 3, 4, 6, 8 to 10)
Vibraphone – Kevin Norton (tracks: 3, 6, 8, 10)
Recorded in "The Basement", May 23, 2005
Any questions -> support@pro-jazz.com. По всем вопросам пишите -> support@pro-jazz.com
16:38
153
Нет комментариев. Ваш будет первым!