Вы используете незарегистрированную версию компонента "Вкладки"!

Поиск

(Free Improvisation, Abstract, Noise, Experimental) MIMEO (Music In Movement Electronic Orchestra) - Electric Chair + Table (2CDs) - 2000, FLAC (tracks+.cue), lossless

Треклист:
MIMEO - Electric Chair + Table
Жанр: Free Improvisation, Abstract, Noise, Experimental
Год выпуска диска: 2000
Производитель диска: GROB 206-7
Аудио кодек: FLAC
Тип рипа: tracks+.cue
Битрейт аудио: lossless
Продолжительность: cd1 54:40; cd2 69:58;
Трэклист:
cd1
Chair
1-1 Untitled 5:37
1-2 Untitled 9:49
1-3 Untitled 16:47
1-4 Untitled 12:16
1-5 Untitled 10:09
cd2
Table
2-1 Untitled 69:57
Synthesizer [Analogue] - Thomas Lehn
Violin, Electronics - Phil Durrant
Computer - Christian Fennesz* , Peter Rehberg
Computer, Synthesizer - Marcus Schmickler
Computer, Violin - Kaffe Matthews
Electronics, Performer [Radio, Tv], Percussion - Gert-Jan Prins
Guitar [Tabletop] - Keith Rowe
Guitar, Electronics - Rafael Toral
Performer [Amplified Metal Garbage] - Markus Wettstein
Performer [Electroacoustic Devices] - Jérôme Noetinger
Piano, Electronics, Organ - Cor Fuhler
Edited By [Studio] - Marcus Schmickler (tracks: 1-1 to 1-5) , Rafael Toral (tracks: 2-1)
Other [Liner Notes Translation] - Bruce Carnevale
Other [Liner Notes] - Felix Klopotek
Photography - Frank Dommert
Artwork By [Front Cover Cover] - Keith Rowe
Artwork By [Layout Of The Booklet And The Cd] - Frank Dommert , weberlknecht
Producer - MIMEO
Recorded on 16/17 December 1998 at Stadtgarten, Cologne. Chair edited in studio in Cologne in December 1999 and Table edited in studio in Lisbon, Portugal in summer 1999.
The music was recorded on the DAT recorders of Rafael Toral and Thomas Lehn during a planned recording session on the morning of 16 and 17 December.
Produced in cooperation with GROB.
Cat# on Disc 1 (Chair) is GROB.206
Cat# on Disc 2 (Table) is GROB.207
Доп. информация:
 
скрытый текст
The Music In Movement Electronic Orchestra (MIMEO) presents a double CD with recordings made at the Cologne "Jack Pohl presents..." festival in December 1998. Marcus Schmickler and Rafael Toral each edited one CD from the seven hours of live material. After the documentation CD queue (GROB 005, now available on Perdition Plastics), there are now versions of the live recordings edited in the studio. The egos of the producers do not stand in the center, rather the effort, the essence to filter and bundle these improvisations. And actually: the music is purer, uncut MIMEO sound. The possibilities of electronic or electro-acoustic improvisation between lap tops and amplified metal junk are brought to their essence by the musicians in a strict but extremely finely differentiated design.
MIMEO: Keith Rowe, Phil Durrant, Kaffe Matthews, Jérôme Noetinger, Gert-Jan Prins, Cor Fuhler, Thomas Lehn, Marcus Schmickler, Markus Wettstein, Christian Fennesz, Peter Rehberg and Rafael Toral.
 
XLD extraction logfiles
 
cd1
X Lossless Decoder version 20090315a (104.3)
XLD extraction logfile from 2009-03-17 10:56:01 -0400
Mimeo / Electric Chair + Table (Disc 1)
Used drive : MATSHITA DVD-R UJ-867 (revision HA13)
Use cdparanoia mode : YES (CDParanoia III 10.2 engine)
Disable audio cache : OK for the drive with cache less than 2750KB
Make use of C2 pointers : NO
Read offset correction : 102
Max retry count : 100
TOC of the extracted CD
Track | Start | Length | Start sector | End sector
---------------------------------------------------------
1 | 00:00:00 | 05:37:29 | 0 | 25303
2 | 05:37:29 | 09:49:66 | 25304 | 69544
3 | 15:27:20 | 16:47:28 | 69545 | 145097
4 | 32:14:48 | 12:16:18 | 145098 | 200315
5 | 44:30:66 | 10:09:46 | 200316 | 246036
Track 01
Filename : /Users/robg/Music/Rips/01 - Electric Chair 1.flac
CRC32 hash (test run) : 69F1649D
CRC32 hash : 69F1649D
CRC32 hash (skip zero) : B1B170E4
AccurateRip signature : D72EE176
->Track not present in AccurateRip database.
Statistics
Read error : 0
Skipped (treated as error) : 0
Edge jitter error (maybe fixed) : 0
Atom jitter error (maybe fixed) : 0
Drift error (maybe fixed) : 0
Dropped bytes error (maybe fixed) : 0
Duplicated bytes error (maybe fixed) : 0
Inconsistency in error sectors : 0
Track 02
Filename : /Users/robg/Music/Rips/02 - Electric Chair 2.flac
CRC32 hash (test run) : 79F34878
CRC32 hash : 79F34878
CRC32 hash (skip zero) : A333B9B9
AccurateRip signature : A0229F48
->Track not present in AccurateRip database.
Statistics
Read error : 0
Skipped (treated as error) : 0
Edge jitter error (maybe fixed) : 0
Atom jitter error (maybe fixed) : 0
Drift error (maybe fixed) : 0
Dropped bytes error (maybe fixed) : 0
Duplicated bytes error (maybe fixed) : 0
Inconsistency in error sectors : 0
Track 03
Filename : /Users/robg/Music/Rips/03 - Electric Chair 3.flac
CRC32 hash (test run) : 8705D105
CRC32 hash : 8705D105
CRC32 hash (skip zero) : C1C32334
AccurateRip signature : 0D91E585
->Track not present in AccurateRip database.
Statistics
Read error : 0
Skipped (treated as error) : 0
Edge jitter error (maybe fixed) : 0
Atom jitter error (maybe fixed) : 0
Drift error (maybe fixed) : 0
Dropped bytes error (maybe fixed) : 0
Duplicated bytes error (maybe fixed) : 0
Inconsistency in error sectors : 0
Track 04
Filename : /Users/robg/Music/Rips/04 - Electric Chair 4.flac
CRC32 hash (test run) : 2FABD570
CRC32 hash : 2FABD570
CRC32 hash (skip zero) : 9707AA54
AccurateRip signature : F4FE7130
->Track not present in AccurateRip database.
Statistics
Read error : 0
Skipped (treated as error) : 0
Edge jitter error (maybe fixed) : 0
Atom jitter error (maybe fixed) : 0
Drift error (maybe fixed) : 0
Dropped bytes error (maybe fixed) : 0
Duplicated bytes error (maybe fixed) : 0
Inconsistency in error sectors : 0
Track 05
Filename : /Users/robg/Music/Rips/05 - Electric Chair 5.flac
CRC32 hash (test run) : 1AB3120A
CRC32 hash : 1AB3120A
CRC32 hash (skip zero) : 1D81DC78
AccurateRip signature : A34FF741
->Track not present in AccurateRip database.
Statistics
Read error : 0
Skipped (treated as error) : 0
Edge jitter error (maybe fixed) : 0
Atom jitter error (maybe fixed) : 0
Drift error (maybe fixed) : 0
Dropped bytes error (maybe fixed) : 0
Duplicated bytes error (maybe fixed) : 0
Inconsistency in error sectors : 0
No errors occurred
End of status report
 
cd2
X Lossless Decoder version 20090315a (104.3)
XLD extraction logfile from 2009-03-17 11:42:25 -0400
MIMEO / Electric Chair + Table (Disc 2)
Used drive : MATSHITA DVD-R UJ-867 (revision HA13)
Use cdparanoia mode : YES (CDParanoia III 10.2 engine)
Disable audio cache : OK for the drive with cache less than 2750KB
Make use of C2 pointers : NO
Read offset correction : 102
Max retry count : 100
TOC of the extracted CD
Track | Start | Length | Start sector | End sector
---------------------------------------------------------
1 | 00:00:00 | 69:57:45 | 0 | 314819
Track 01
Filename : /Users/robg/Music/Rips/01 - Electric Table.flac
CRC32 hash (test run) : 375F3DD8
CRC32 hash : 375F3DD8
CRC32 hash (skip zero) : 76CD0A0D
AccurateRip signature : F5313335
->Track not present in AccurateRip database.
Statistics
Read error : 0
Skipped (treated as error) : 0
Edge jitter error (maybe fixed) : 0
Atom jitter error (maybe fixed) : 0
Drift error (maybe fixed) : 0
Dropped bytes error (maybe fixed) : 0
Duplicated bytes error (maybe fixed) : 0
Inconsistency in error sectors : 0
No errors occurred
End of status report
По всем вопросам пишите личное сообщение пользователю M0p94ok.
18:23
181
Нет комментариев. Ваш будет первым!