Поиск

(Flute, Latin Jazz, World Fusion) Herbie Mann - Sultry Serenade (1957) - 1997, FLAC (tracks+.cue) lossless

Треклист:
Herbie Mann - Sultry Serenade
Жанр: Flute, Latin Jazz, World Fusion
Страна-производитель диска: U.S.A
Год издания диска: 1997
Издатель (лейбл): Riverside Records
Номер по каталогу: OJCCD 927-2
Аудио кодек: FLAC (*.flac)
Тип рипа: tracks+.cue
Битрейт аудио: lossless
Продолжительность: 39:34
Наличие сканов в содержимом раздачи: да
Источник: рип с собственного диска

01 ... Let Me Tell You ... 3:45
02 ... When The Sun Comes Out ... 7:05
03 ... Professor ... 5:03
04 ... Lazy Bones ... 5:10
05 ... Sultry Serenade ... 4:05
06 ... Little Man You've Had A Busy Day ... 4:51
07 ... One Morning In May ... 4:28
08 ... Swing till the Girls Come Home ... 4:57
 
Лог создания рипа
EAC extraction logfile from 11. January 2008, 18:55 for CD
Herbie Mann / Sultry Serenade
Used drive : HL-DT-STDVDRAM GSA-4163B Adapter: 1 ID: 1
Read mode : Secure with NO C2, accurate stream, disable cache
Read offset correction : 667
Overread into Lead-In and Lead-Out : No
Used output format : Internal WAV Routines
44.100 Hz; 16 Bit; Stereo
Other options :
Fill up missing offset samples with silence : Yes
Delete leading and trailing silent blocks : No
Installed external ASPI interface
Track 1
Filename D:\Rob DVD\Herbie Mann - Sultry Serenade (1957)[FLAC]{OJC} by JazzCrew\01 - Let Me Tell You.wav
Pre-gap length 0:00:02.00
Peak level 90.3 %
Track quality 100.0 %
Test CRC 875F9631
Copy CRC 875F9631
Copy OK
Track 2
Filename D:\Rob DVD\Herbie Mann - Sultry Serenade (1957)[FLAC]{OJC} by JazzCrew\02 - When The Sun Comes Out.wav
Pre-gap length 0:00:01.46
Peak level 61.4 %
Track quality 99.9 %
Test CRC 4A7F3347
Copy CRC 4A7F3347
Copy OK
Track 3
Filename D:\Rob DVD\Herbie Mann - Sultry Serenade (1957)[FLAC]{OJC} by JazzCrew\03 - Professor.wav
Pre-gap length 0:00:01.17
Peak level 100.0 %
Track quality 100.0 %
Test CRC 1373B81D
Copy CRC 1373B81D
Copy OK
Track 4
Filename D:\Rob DVD\Herbie Mann - Sultry Serenade (1957)[FLAC]{OJC} by JazzCrew\04 - Lazy Bones.wav
Pre-gap length 0:00:00.71
Peak level 100.0 %
Track quality 100.0 %
Test CRC 858CD2D6
Copy CRC 858CD2D6
Copy OK
Track 5
Filename D:\Rob DVD\Herbie Mann - Sultry Serenade (1957)[FLAC]{OJC} by JazzCrew\05 - Sultry Serenade.wav
Pre-gap length 0:00:02.28
Peak level 100.0 %
Track quality 100.0 %
Test CRC 592CB141
Copy CRC 592CB141
Copy OK
Track 6
Filename D:\Rob DVD\Herbie Mann - Sultry Serenade (1957)[FLAC]{OJC} by JazzCrew\06 - Little Man You've Had A Busy Day.wav
Pre-gap length 0:00:02.06
Peak level 98.7 %
Track quality 100.0 %
Test CRC 86EE27D1
Copy CRC 86EE27D1
Copy OK
Track 7
Filename D:\Rob DVD\Herbie Mann - Sultry Serenade (1957)[FLAC]{OJC} by JazzCrew\07 - One Morning In May.wav
Pre-gap length 0:00:00.41
Peak level 60.0 %
Track quality 100.0 %
Test CRC 8BEA7EF2
Copy CRC 8BEA7EF2
Copy OK
Track 8
Filename D:\Rob DVD\Herbie Mann - Sultry Serenade (1957)[FLAC]{OJC} by JazzCrew\08 - Swing till the Girls Come Home.wav
Pre-gap length 0:00:00.72
Peak level 100.0 %
Track quality 100.0 %
Test CRC EDC3446D
Copy CRC EDC3446D
Copy OK
No errors occured
End of status report
 
Индексная карта
REM GENRE "Easy Listening"
REM DATE 1997
REM DISCID 69094008
REM COMMENT "ExactAudioCopy v0.95b2"
PERFORMER "Herbie Mann"
TITLE "Sultry Serenade"
FILE "01 - Let Me Tell You.wav" WAVE
TRACK 01 AUDIO
TITLE "Let Me Tell You"
PERFORMER "Herbie Mann"
INDEX 01 00:00:00
TRACK 02 AUDIO
TITLE "When The Sun Comes Out"
PERFORMER "Herbie Mann"
INDEX 00 04:27:11
FILE "02 - When The Sun Comes Out.wav" WAVE
INDEX 01 00:00:00
TRACK 03 AUDIO
TITLE "Professor"
PERFORMER "Herbie Mann"
INDEX 00 04:56:23
FILE "03 - Professor.wav" WAVE
INDEX 01 00:00:00
TRACK 04 AUDIO
TITLE "Lazy Bones"
PERFORMER "Herbie Mann"
INDEX 00 03:44:54
FILE "04 - Lazy Bones.wav" WAVE
INDEX 01 00:00:00
TRACK 05 AUDIO
TITLE "Sultry Serenade"
PERFORMER "Herbie Mann"
INDEX 00 07:03:37
FILE "05 - Sultry Serenade.wav" WAVE
INDEX 01 00:00:00
TRACK 06 AUDIO
TITLE "Little Man You've Had A Busy Day"
PERFORMER "Herbie Mann"
INDEX 00 05:00:74
FILE "06 - Little Man You've Had A Busy Day.wav" WAVE
INDEX 01 00:00:00
TRACK 07 AUDIO
TITLE "One Morning In May"
PERFORMER "Herbie Mann"
INDEX 00 05:10:24
FILE "07 - One Morning In May.wav" WAVE
INDEX 01 00:00:00
TRACK 08 AUDIO
TITLE "Swing till the Girls Come Home"
PERFORMER "Herbie Mann"
INDEX 00 04:04:23
FILE "08 - Swing till the Girls Come Home.wav" WAVE
INDEX 01 00:00:00
~ .......... Listen to samples .......... ~
 
~ Смотреть мои - DVD ~ (скачать) ~
~ Смотреть DVD - Planet Earth - Magic Relax Music (скачать) ~
 
~ Смотреть DVD - Planet Earth in Lounge Music - Vol.1 E-xception (скачать) ~
 
~ Смотреть DVD - Planet Earth in Lounge Music - Vol.2 E-motion (скачать) ~
 
~ Смотреть DVD - Planet Earth in Lounge Music - Vol.3 E-nigmatic (скачать) ~
 
~ Смотреть DVD - Planet Earth in Lounge Music - Vol.4 @dmiration (скачать) ~
 
~ Смотреть DVD - Planet Earth in Lounge Music - Vol.5 Contemplation (скачать) ~
 
~ Смотреть DVD - Planet Earth in Lounge Music - Vol.6 E-lectro (скачать) ~
 
~ Смотреть DVD - Planet Earth in Lounge Music - Vol.7 E-xtreme (скачать) ~
 
~ Смотреть DVD - Planet Earth in Lounge Music - Vol.8 @nimal (скачать) ~
 
~ Смотреть DVD - Planet Earth in Lounge Music - Vol.9 Coloration (скачать) ~
 
~ Смотреть DVD - Planet Earth in Lounge Music - Vol.10 Pulse (скачать) ~
 
~ Смотреть DVD - Relax Video - Великие водопады - New Age Music (скачать) ~
 
~ Смотреть DVD - Непал, Тибет - музыкальное путишествие - Nepal, Tibet (скачать) ~
 
~ Смотреть DVD - BUDDHA'S BANQUET - Music Lounge (скачать) ~
19:24
283
Нет комментариев. Ваш будет первым!