Поиск

(Brazilian, Samba, Bossa Nova, Vocal Jazz) Elza Soares - Elza Soares (1974) - 2010, FLAC (tracks+.cue) lossless

(Brazilian, Samba, Bossa Nova, Vocal Jazz) Elza Soares - Elza Soares (1974) - 2010, FLAC (tracks+.cue) lossless
Треклист:
Elza Soares
Elza Soares (1974)



Жанр: Brazilian, Samba, Bossa Nova, Vocal Jazz | Страна: Brazil
Дата выпуска альбома / диска: 1974 / 2010 | Производитель диска: Discobertas Brazil
Аудио кодек: FLAC | Тип рипа: tracks+.cue | Битрейт аудио: lossless
+ TIF art scans
Формат: Studio Album, Remastered
Продолжительность: 44:51


Tracklist:
01. Bom Dia, Portela (2:57)
02. Pranto Livre (3:34)
03. Nao e Hora de Tristeza (3:32)
04. Meia Noite Ja e Dia (2:41)
05. Desabafo (2:25)
06. Partido do Le Le Le (2:18)
07. Deusa do Rio Niger (2:51)
08. Quem Ha de Dizer (3:02)
09. Louvei Maria (3:10)
10. Xamego de Crioula (2:39)
11. Falso Papel (3:29)
12. Giringonca (3:15)
Bonus tracks
13. Salve a Mocidade (2:28)
14. Festa do Ci­rio de Nazare (3:47)
15. O Mundo Fantastico do Uirapuru (2:43)



 
EAC log
Exact Audio Copy V0.99 prebeta 5 from 4. May 2009
EAC extraction logfile from 19. November 2010, 2:24
Elza Soares / Elza Soares
Used drive : PLEXTOR DVDR PX-880SA Adapter: 0 ID: 0
Read mode : Secure
Utilize accurate stream : Yes
Defeat audio cache : Yes
Make use of C2 pointers : No
Read offset correction : 6
Overread into Lead-In and Lead-Out : No
Fill up missing offset samples with silence : Yes
Delete leading and trailing silent blocks : No
Null samples used in CRC calculations : Yes
Used interface : Native Win32 interface for Win NT & 2000
Gap handling : Appended to previous track
Used output format : User Defined Encoder
Selected bitrate : 768 kBit/s
Quality : High
Add ID3 tag : No
Command line compressor : C:\Program Files (x86)\Exact Audio Copy\FLAC\FLAC.EXE
Additional command line options : -8 -V -T "ARTIST=%a" -T "TITLE=%t" -T "ALBUM=%g" -T "DATE=%
y" -T "TRACKNUMBER=%n" -T "TOTALTRACKS=%x" -T "GENRE=%m" -T "ALBUM ARTIST=%v" -
T "ALBUMARTIST=%v" -T "COMMENT=EAC V0.99 prebeta 5, Secure Mode, Test & Copy, Accurat
TOC of the extracted CD
Track | Start | Length | Start sector | End sector
---------------------------------------------------------
1 | 0:00.00 | 2:57.69 | 0 | 13343
2 | 2:57.69 | 3:34.42 | 13344 | 29435
3 | 6:32.36 | 3:32.21 | 29436 | 45356
4 | 10:04.57 | 2:41.02 | 45357 | 57433
5 | 12:45.59 | 2:25.59 | 57434 | 68367
6 | 15:11.43 | 2:18.41 | 68368 | 78758
7 | 17:30.09 | 2:51.74 | 78759 | 91657
8 | 20:22.08 | 3:02.01 | 91658 | 105308
9 | 23:24.09 | 3:10.56 | 105309 | 119614
10 | 26:34.65 | 2:39.67 | 119615 | 131606
11 | 29:14.57 | 3:29.23 | 131607 | 147304
12 | 32:44.05 | 3:15.57 | 147305 | 161986
13 | 35:59.62 | 2:28.31 | 161987 | 173117
14 | 38:28.18 | 3:47.10 | 173118 | 190152
15 | 42:15.28 | 2:43.18 | 190153 | 202395
Track 1
Filename D:\01 - Bom Dia, Portela.wav
Pre-gap length 0:00:02.00
Peak level 99.9 %
Track quality 100.0 %
Test CRC E2FC8C5B
Copy CRC E2FC8C5B
Track not present in AccurateRip database
Copy OK
Track 2
Filename D:\02 - Pranto Livre.wav
Pre-gap length 0:00:02.00
Peak level 99.9 %
Track quality 100.0 %
Test CRC 5C0178FB
Copy CRC 5C0178FB
Track not present in AccurateRip database
Copy OK
Track 3
Filename D:\03 - Nao e Hora de Tristeza.wav
Pre-gap length 0:00:02.00
Peak level 99.9 %
Track quality 100.0 %
Test CRC FB3DE260
Copy CRC FB3DE260
Track not present in AccurateRip database
Copy OK
Track 4
Filename D:\04 - Meia Noite Ja e Dia.wav
Pre-gap length 0:00:02.00
Peak level 99.9 %
Track quality 99.9 %
Test CRC F886B41A
Copy CRC F886B41A
Track not present in AccurateRip database
Copy OK
Track 5
Filename D:\05 - Desabafo.wav
Pre-gap length 0:00:02.00
Peak level 99.9 %
Track quality 99.9 %
Test CRC 4DC7CABA
Copy CRC 4DC7CABA
Track not present in AccurateRip database
Copy OK
Track 6
Filename D:\06 - Partido do Le Le Le.wav
Pre-gap length 0:00:02.00
Peak level 99.9 %
Track quality 100.0 %
Test CRC B2D8B860
Copy CRC B2D8B860
Track not present in AccurateRip database
Copy OK
Track 7
Filename D:\07 - Deusa do Rio Niger.wav
Pre-gap length 0:00:02.00
Peak level 100.0 %
Track quality 99.9 %
Test CRC F6505AC6
Copy CRC F6505AC6
Track not present in AccurateRip database
Copy OK
Track 8
Filename D:\08 - Quem Ha de Dizer.wav
Pre-gap length 0:00:02.00
Peak level 99.9 %
Track quality 100.0 %
Test CRC 2E679D74
Copy CRC 2E679D74
Track not present in AccurateRip database
Copy OK
Track 9
Filename D:\09 - Louvei Maria.wav
Pre-gap length 0:00:02.00
Peak level 99.9 %
Track quality 100.0 %
Test CRC 97FBC649
Copy CRC 97FBC649
Track not present in AccurateRip database
Copy OK
Track 10
Filename D:\10 - Xamego de Crioula.wav
Pre-gap length 0:00:02.00
Peak level 99.9 %
Track quality 100.0 %
Test CRC E3B6A0C0
Copy CRC E3B6A0C0
Track not present in AccurateRip database
Copy OK
Track 11
Filename D:\11 - Falso Papel.wav
Pre-gap length 0:00:02.00
Peak level 99.9 %
Track quality 100.0 %
Test CRC 22FFE9D8
Copy CRC 22FFE9D8
Track not present in AccurateRip database
Copy OK
Track 12
Filename D:\12 - Giringonca.wav
Pre-gap length 0:00:02.00
Peak level 99.9 %
Track quality 100.0 %
Test CRC 69DB4FAC
Copy CRC 69DB4FAC
Track not present in AccurateRip database
Copy OK
Track 13
Filename D:\13 - Salve a Mocidade.wav
Pre-gap length 0:00:02.00
Peak level 99.9 %
Track quality 99.9 %
Test CRC 249E7750
Copy CRC 249E7750
Track not present in AccurateRip database
Copy OK
Track 14
Filename D:\14 - Festa do Cirio de Nazare.wav
Pre-gap length 0:00:02.00
Peak level 100.0 %
Track quality 99.9 %
Test CRC 1F1C85E5
Copy CRC 1F1C85E5
Track not present in AccurateRip database
Copy OK
Track 15
Filename D:\15 - O Mundo Fantastico do Uirapuru.wav
Pre-gap length 0:00:02.00
Peak level 99.9 %
Track quality 100.0 %
Test CRC BC21BCCF
Copy CRC BC21BCCF
Track not present in AccurateRip database
Copy OK
None of the tracks are present in the AccurateRip database
No errors occurred
End of status report
 
*.cue
REM GENRE Samba
REM DATE 1974
REM DISCID CB0A8A0F
REM COMMENT "ExactAudioCopy v0.99pb5"
PERFORMER "Elza Soares"
TITLE "Elza Soares"
FILE "01 - Bom Dia, Portela.wav" WAVE
TRACK 01 AUDIO
TITLE "Bom Dia, Portela"
PERFORMER "Elza Soares"
INDEX 01 00:00:00
TRACK 02 AUDIO
TITLE "Pranto Livre"
PERFORMER "Elza Soares"
INDEX 00 02:55:69
FILE "02 - Pranto Livre.wav" WAVE
INDEX 01 00:00:00
TRACK 03 AUDIO
TITLE "Nao e Hora de Tristeza"
PERFORMER "Elza Soares"
INDEX 00 03:32:42
FILE "03 - Nao e Hora de Tristeza.wav" WAVE
INDEX 01 00:00:00
TRACK 04 AUDIO
TITLE "Meia Noite Ja e Dia"
PERFORMER "Elza Soares"
INDEX 00 03:30:21
FILE "04 - Meia Noite Ja e Dia.wav" WAVE
INDEX 01 00:00:00
TRACK 05 AUDIO
TITLE "Desabafo"
PERFORMER "Elza Soares"
INDEX 00 02:39:02
FILE "05 - Desabafo.wav" WAVE
INDEX 01 00:00:00
TRACK 06 AUDIO
TITLE "Partido do Le Le Le"
PERFORMER "Elza Soares"
INDEX 00 02:23:59
FILE "06 - Partido do Le Le Le.wav" WAVE
INDEX 01 00:00:00
TRACK 07 AUDIO
TITLE "Deusa do Rio Niger"
PERFORMER "Elza Soares"
INDEX 00 02:16:41
FILE "07 - Deusa do Rio Niger.wav" WAVE
INDEX 01 00:00:00
TRACK 08 AUDIO
TITLE "Quem Ha de Dizer"
PERFORMER "Elza Soares"
INDEX 00 02:49:74
FILE "08 - Quem Ha de Dizer.wav" WAVE
INDEX 01 00:00:00
TRACK 09 AUDIO
TITLE "Louvei Maria"
PERFORMER "Elza Soares"
INDEX 00 03:00:01
FILE "09 - Louvei Maria.wav" WAVE
INDEX 01 00:00:00
TRACK 10 AUDIO
TITLE "Xamego de Crioula"
PERFORMER "Elza Soares"
INDEX 00 03:08:56
FILE "10 - Xamego de Crioula.wav" WAVE
INDEX 01 00:00:00
TRACK 11 AUDIO
TITLE "Falso Papel"
PERFORMER "Elza Soares"
INDEX 00 02:37:67
FILE "11 - Falso Papel.wav" WAVE
INDEX 01 00:00:00
TRACK 12 AUDIO
TITLE "Giringonca"
PERFORMER "Elza Soares"
INDEX 00 03:27:23
FILE "12 - Giringonca.wav" WAVE
INDEX 01 00:00:00
TRACK 13 AUDIO
TITLE "Salve a Mocidade"
PERFORMER "Elza Soares"
INDEX 00 03:13:57
FILE "13 - Salve a Mocidade.wav" WAVE
INDEX 01 00:00:00
TRACK 14 AUDIO
TITLE "Festa do Cirio de Nazare"
PERFORMER "Elza Soares"
INDEX 00 02:26:31
FILE "14 - Festa do Cirio de Nazare.wav" WAVE
INDEX 01 00:00:00
TRACK 15 AUDIO
TITLE "O Mundo Fantastico do Uirapuru"
PERFORMER "Elza Soares"
INDEX 00 03:45:10
FILE "15 - O Mundo Fantastico do Uirapuru.wav" WAVE
INDEX 01 00:00:00
 
Audiochecker’s log
AUDIOCHECKER v2.0 beta (build 457) - by Dester - opdester@freemail.hu
~~~~~~~~~~~~~~~~~~~~~~~~~~~~~~~~~~
Started at: воскресенье, 28. 11. 2010. - 12:20.57
15 files found
01 -===- F:\Elza Soares - Elza Soares (1974) 2010 [flac]\01 - Bom Dia, Portela.flac
Extracted successfully
Conclusion: this track is CDDA with probability 99%
Tempfile successfully deleted.
02 -===- F:\Elza Soares - Elza Soares (1974) 2010 [flac]\02 - Pranto Livre.flac
Extracted successfully
Conclusion: this track is CDDA with probability 100%
Tempfile successfully deleted.
03 -===- F:\Elza Soares - Elza Soares (1974) 2010 [flac]\03 - Nao e Hora de Tristeza.flac
Extracted successfully
Conclusion: this track is CDDA with probability 100%
Tempfile successfully deleted.
04 -===- F:\Elza Soares - Elza Soares (1974) 2010 [flac]\04 - Meia Noite Ja e Dia.flac
Extracted successfully
Conclusion: this track is CDDA with probability 100%
Tempfile successfully deleted.
05 -===- F:\Elza Soares - Elza Soares (1974) 2010 [flac]\05 - Desabafo.flac
Extracted successfully
Conclusion: this track is CDDA with probability 100%
Tempfile successfully deleted.
06 -===- F:\Elza Soares - Elza Soares (1974) 2010 [flac]\06 - Partido do Le Le Le.flac
Extracted successfully
Conclusion: this track is CDDA with probability 100%
Tempfile successfully deleted.
07 -===- F:\Elza Soares - Elza Soares (1974) 2010 [flac]\07 - Deusa do Rio Niger.flac
Extracted successfully
Conclusion: this track is CDDA with probability 100%
Tempfile successfully deleted.
08 -===- F:\Elza Soares - Elza Soares (1974) 2010 [flac]\08 - Quem Ha de Dizer.flac
Extracted successfully
Conclusion: this track is CDDA with probability 100%
Tempfile successfully deleted.
09 -===- F:\Elza Soares - Elza Soares (1974) 2010 [flac]\09 - Louvei Maria.flac
Extracted successfully
Conclusion: this track is CDDA with probability 100%
Tempfile successfully deleted.
10 -===- F:\Elza Soares - Elza Soares (1974) 2010 [flac]\10 - Xamego de Crioula.flac
Extracted successfully
Conclusion: this track is CDDA with probability 100%
Tempfile successfully deleted.
11 -===- F:\Elza Soares - Elza Soares (1974) 2010 [flac]\11 - Falso Papel.flac
Extracted successfully
Conclusion: this track is CDDA with probability 100%
Tempfile successfully deleted.
12 -===- F:\Elza Soares - Elza Soares (1974) 2010 [flac]\12 - Giringonca.flac
Extracted successfully
Conclusion: this track is CDDA with probability 100%
Tempfile successfully deleted.
13 -===- F:\Elza Soares - Elza Soares (1974) 2010 [flac]\13 - Salve a Mocidade.flac
Extracted successfully
Conclusion: this track is CDDA with probability 100%
Tempfile successfully deleted.
14 -===- F:\Elza Soares - Elza Soares (1974) 2010 [flac]\14 - Festa do Cirio de Nazare.flac
Extracted successfully
Conclusion: this track is CDDA with probability 100%
Tempfile successfully deleted.
15 -===- F:\Elza Soares - Elza Soares (1974) 2010 [flac]\15 - O Mundo Fantastico do Uirapuru.flac
Extracted successfully
Conclusion: this track is CDDA with probability 99%
Tempfile successfully deleted.
Finished at: воскресенье, 28. 11. 2010. - 12:42.26 (operation time: 0:21.29)
~ Source: original CD, ripped by FlabberНеремастированное издание тут
Сидирую до первых 10-ти скачавших. Далее раздача поддерживается силами скачавших.
Скачали сами - дайте скачать другим.
18:23
235
Нет комментариев. Ваш будет первым!