Поиск

(Experimental / Avantgarde-Jazz / Jazz-Rock / Blues-Rock) Marc Ribot — Requiem For What's-His-Name — 1992, FLAC (tracks)

Треклист:
Requiem For What's-His-Name
Marc Ribot
Страна: Belgium
Жанр: Experimental / Avantgarde-Jazz / Jazz-Rock / Blues-Rock
Год выпуска: 1992
Формат: FLAC (tracks)
Продолжительность: 51 min
Трэклист:
01 Requiem For What's-His-Name (4:29)
02 Disposable Head (2:50)
03 Clever White youths (4:30)
04 First Time Every Time (2:01)
05 Motherless Child (1:06)
06 New (4:18)
07 Reveille (1:08)
08 Lamonte's Nightmare (5:56)
09 March (2:00)
10 Pony (2:14)
11 Yo, I Killed Your God (2:39)
12 Commit A Crime (3:19)
13 Caravan (3:48)
14 Blues (3:11)
15 1 Adolph 12 (6:57)
Доп. информация:
Personnel:
Marc Ribot — Guitars, Vocals, Eb Horn, Piano, Drum Sequencing
Wilbo Wright — Bass, Detuned Guitar
Roy Nathanson — Soprano Saxophone, Chermia
Ralph Carney — Alto Saxophone, Sona, Tenor Saxophone, Clarinet, Soprano Saxophone, Assorted Duck Calls
Anthony Coleman — Pump Organ, Sampler, Piano
Simeon Cain — Drums, Percussion
Syd Straw — Vocals
Zeena Parkins — Electric Harp
Brad Jones — Bass
Greg Jones — Bass
Rock Savage — Drums
J.D. Parren — Clarinet
Recorded at Eastside Sound and Planet Sound, NYC
except "Commit A Crime" which was recorded live at Desi Stadtteilzentrum, Nuremberg, Germany
 
EAC extraction logfile
EAC extraction logfile from 13. May 2008, 20:36 for CD
Marc Ribot / Requiem for What's-His-Name
Used drive : TEAC CD-W224E Adapter: 1 ID: 0
Read mode : Secure with NO C2, accurate stream, disable cache
Read offset correction : 685
Overread into Lead-In and Lead-Out : No
Used output format : C:\Program Files\Flac\bin\flac.exe (User Defined Encoder)
128 kBit/s
Additional command line options : -8 -V -T "ARTIST=%a" -T "TITLE=%t" -T "ALBUM=%g" -T "DATE=%y" -T "TRACKNUMBER=%n" -T "GENRE=%m" -T "COMMENT=EAC FLAC -8" %s
Other options :
Fill up missing offset samples with silence : Yes
Delete leading and trailing silent blocks : No
Installed external ASPI interface
Track 1
Filename C:\konwersja\Marc Ribot - Requiem For What's-His-Name (1992) [FLAC]\01 - Requiem For What's-His-Name.wav
Pre-gap length 0:00:02.00
Peak level 54.5 %
Track quality 100.0 %
Test CRC E3B92253
Copy CRC E3B92253
Copy OK
Track 2
Filename C:\konwersja\Marc Ribot - Requiem For What's-His-Name (1992) [FLAC]\02 - Disposable Head.wav
Peak level 85.6 %
Track quality 100.0 %
Test CRC 8313DBC1
Copy CRC 8313DBC1
Copy OK
Track 3
Filename C:\konwersja\Marc Ribot - Requiem For What's-His-Name (1992) [FLAC]\03 - Clever White Youths.wav
Pre-gap length 0:00:00.62
Peak level 87.6 %
Track quality 100.0 %
Test CRC 6931EE39
Copy CRC 6931EE39
Copy OK
Track 4
Filename C:\konwersja\Marc Ribot - Requiem For What's-His-Name (1992) [FLAC]\04 - First Time Every Time.wav
Peak level 73.7 %
Track quality 100.0 %
Test CRC 81DCE7A7
Copy CRC 81DCE7A7
Copy OK
Track 5
Filename C:\konwersja\Marc Ribot - Requiem For What's-His-Name (1992) [FLAC]\05 - Motherless Child.wav
Pre-gap length 0:00:02.73
Peak level 90.6 %
Track quality 100.0 %
Test CRC B2F13ABD
Copy CRC B2F13ABD
Copy OK
Track 6
Filename C:\konwersja\Marc Ribot - Requiem For What's-His-Name (1992) [FLAC]\06 - New.wav
Pre-gap length 0:00:01.49
Peak level 100.0 %
Track quality 99.9 %
Test CRC 8F01ED05
Copy CRC 8F01ED05
Copy OK
Track 7
Filename C:\konwersja\Marc Ribot - Requiem For What's-His-Name (1992) [FLAC]\07 - Reveille.wav
Peak level 85.8 %
Track quality 99.8 %
Test CRC 6912E1CE
Copy CRC 6912E1CE
Copy OK
Track 8
Filename C:\konwersja\Marc Ribot - Requiem For What's-His-Name (1992) [FLAC]\08 - LaMonte's Nightmare.wav
Pre-gap length 0:00:03.20
Peak level 88.3 %
Track quality 100.0 %
Test CRC 9766DD0F
Copy CRC 9766DD0F
Copy OK
Track 9
Filename C:\konwersja\Marc Ribot - Requiem For What's-His-Name (1992) [FLAC]\09 - March.wav
Pre-gap length 0:00:02.40
Peak level 81.0 %
Track quality 100.0 %
Test CRC B28D2C2C
Copy CRC B28D2C2C
Copy OK
Track 10
Filename C:\konwersja\Marc Ribot - Requiem For What's-His-Name (1992) [FLAC]\10 - Pony.wav
Pre-gap length 0:00:04.00
Peak level 41.1 %
Track quality 100.0 %
Test CRC 041C82C1
Copy CRC 041C82C1
Copy OK
Track 11
Filename C:\konwersja\Marc Ribot - Requiem For What's-His-Name (1992) [FLAC]\11 - Yo, I Killed Your God.wav
Pre-gap length 0:00:01.49
Peak level 96.1 %
Track quality 99.9 %
Test CRC 60935420
Copy CRC 60935420
Copy OK
Track 12
Filename C:\konwersja\Marc Ribot - Requiem For What's-His-Name (1992) [FLAC]\12 - Commit A Crime.wav
Pre-gap length 0:00:01.02
Peak level 83.0 %
Track quality 100.0 %
Test CRC 0E3B756E
Copy CRC 0E3B756E
Copy OK
Track 13
Filename C:\konwersja\Marc Ribot - Requiem For What's-His-Name (1992) [FLAC]\13 - Caravan.wav
Pre-gap length 0:00:01.64
Peak level 100.0 %
Track quality 100.0 %
Test CRC 1B2BC1B0
Copy CRC 1B2BC1B0
Copy OK
Track 14
Filename C:\konwersja\Marc Ribot - Requiem For What's-His-Name (1992) [FLAC]\14 - Blues.wav
Peak level 99.6 %
Track quality 100.0 %
Test CRC 616880DE
Copy CRC 616880DE
Copy OK
Track 15
Filename C:\konwersja\Marc Ribot - Requiem For What's-His-Name (1992) [FLAC]\15 - 1 Adolph 12.wav
Pre-gap length 0:00:01.40
Peak level 95.0 %
Track quality 99.9 %
Test CRC 293C80C7
Copy CRC 293C80C7
Copy OK
No errors occured
End of status report
Приватный:
Нет (DHT включён)
Размер:
258.74 Мб (271,306,841 байт) » файлов: 31
Участники:
0 раздают, 0 качают (0 участников всего)
Внешние участники:
7 раздают, 2 качают (9 участников всего) [ Обновить ]
Есть вопросы - пишите личное сообщение пользователю M0p94ok.
01:07
57
Нет комментариев. Ваш будет первым!