Поиск

(avantgarde jazz) John Coltrane - Expression - 1967, FLAC (image + .cue), lossless

Треклист:
John Coltrane - Expression
Страна: USA
Жанр: avantgarde jazz
Год выпуска: 1967
Формат: FLAC (image + .cue)
Битрейт аудио: lossless
Продолжительность: 39:20
Трэклист:
1. Ogunde
2. To Be
3. Offering
4. Expression
Доп. информация: John Coltrane / Alice Coltrane / Jimmy Garrison / Rashied Ali / Pharoah Sanders
recorded 15.02.1967 - 07.03.1967.
Impulse! A-9120
 
Отчет ЕAC
Exact Audio Copy V0.99 prebeta 4 from 23. January 2008
Отчёт EAC об извлечении, выполненном 12. мая 2008, 20:17
John Coltrane / Expression
Дисковод: Optiarc DVD RW AD-7170A Adapter: 0 ID: 1
Режим чтения : Достоверность
Использование точного потока : Да
Отключение кэша аудио : Да
Использование указателей C2 : Нет
Коррекция смещения при чтении : 48
Способность читать области Lead-in и Lead-out : Нет
Заполнение пропущенных сэмплов тишиной : Да
Удаление блоков с тишиной в начале и конце : Нет
При вычислениях CRC использовались нулевые сэмплы : Нет
Интерфейс : Встроенный Win32-интерфейс для Win NT/2000
Выходной формат : Пользовательский кодировщик
Выбранный битрейт : 768 kBit/s
Качество : Высокий
Добавление ID3-тэга : Нет
Утилита сжатия : C:\Program Files\Exact Audio Copy\FLAC\FLAC.EXE
Дополнительные параметры : -6 -V -T "ARTIST=%a" -T "TITLE=%t" -T "ALBUM=%g" -T "DATE=%y" -T "TRACKNUMBER=%n" -T "GENRE=%m" -T "COMMENT=%e" %s -o %d
TOC извлечённого CD
Трек | Старт | Длительность | Начальный сектор | Конечный сектор
---------------------------------------------------------------------
1 | 0:00.00 | 3:40.05 | 0 | 16504
2 | 3:40.05 | 16:21.67 | 16505 | 90146
3 | 20:01.72 | 8:27.63 | 90147 | 128234
4 | 28:29.60 | 10:50.40 | 128235 | 177024
Характеристики диапазона извлечения и сообщения об ошибках
Выбранный диапазон
Имя файла C:\Music\John Coltrane - Expression.wav
Пиковый уровень 100.0 %
Качество диапазона 99.9 %
CRC копии F56D48F7
Копирование... OK
Ошибок не произошло
AccurateRip: сводка
Трек 1 нет в базе данных
Трек 2 нет в базе данных
Трек 3 нет в базе данных
Трек 4 нет в базе данных
Ни одного трека нет в базе AccurateRip
Конец отчёта
 
CUETools log
[CUETools log; Date: 11.04.2016 4:34:11; Version: 2.0.9]
[AccurateRip ID: 00064908-0019f68d-18093804] found.
Track [ CRC ] Status
01 [c7fb3c7a] (2/6) Accurately ripped
02 [4db7dfa7] (2/6) Accurately ripped
03 [b4b59e04] (2/6) Accurately ripped
04 [921edf9c] (2/6) Accurately ripped
Track Peak [ CRC32 ] [W/O NULL] [ LOG ]
-- 100,0 [DB437DB5] [F56D48F7] W/O NULL
01 91,8 [16EFB193] [ACF81B55]
02 95,6 [2378DAFD] [1D7ECE75]
03 98,7 [25C030F0] [C8FC7F36]
04 100,0 [FC437A50] [CC2BB776]
Приватный:
Нет (DHT включён)
Размер:
243.72 Мб (255,555,138 байт) » файлов: 3
Участники:
0 раздают, 0 качают (0 участников всего)
Внешние участники:
1 раздают, 0 качают (1 участников всего) [ Обновить ]
No seeders - write a personal message to user M0p94ok. Нет сидеров - пишите личное сообщение пользователю M0p94ok.
01:07
44
Нет комментариев. Ваш будет первым!