Поиск

(European Groove, Afro-beat) Alan Parker / John Cameron - Afro Rock (1973) - 2007, FLAC (tracks+.cue), lossless

(European Groove, Afro-beat) Alan Parker / John Cameron - Afro Rock (1973) - 2007, FLAC (tracks+.cue), lossless
Alan Parker / John Cameron - Afro Rock (1973)
Жанр: European Groove, Afro-beat
Страна-производитель диска: US
Год издания диска: 2007
Издатель (лейбл): Tummy Touch
Номер по каталогу: TUCH1130CD
Аудиокодек: FLAC (*.flac)
Тип рипа: tracks+.cue
Битрейт аудио: lossless
Продолжительность: 42:32
Источник (релизер): wata
Наличие сканов в содержимом раздачи: нет
Треклист:
01. Alan Parker - Heavy Water (3:21)
02. Alan Parker - Ice Breaker (3:54)
03. Alan Parker - Solid Satin (2:17)
04. Alan Parker - Punch Bowl (2:42)
05. Alan Parker - Frozen Steam (3:39)
06. Alan Parker - Black Light (2:43)
07. John Cameron - Range Rover (3:28)
08. John Cameron - Swamp Fever (2:12)
09. John Cameron - Safari So Good (2:01)
10. John Cameron - Survival (2:54)
11. John Cameron - Afro Waltz (2:41)
12. John Cameron - Sahara Sunrise (3:04)
13. John Cameron - Rocking Rhino (2:31)
14. John Cameron - Heat Haze (2:53)
15. John Cameron - Afro Metropolis (2:43)
 
Лог создания рипа
Exact Audio Copy V0.99 prebeta 4 from 23. January 2008
EAC extraction logfile from 9. May 2009, 22:09
Various / KPM 1000 Series - Afro Rock
Used drive : TSSTcorpCD/DVDW SH-S183L Adapter: 3 ID: 0
Read mode : Secure
Utilize accurate stream : Yes
Defeat audio cache : Yes
Make use of C2 pointers : No
Read offset correction : 6
Overread into Lead-In and Lead-Out : No
Fill up missing offset samples with silence : Yes
Delete leading and trailing silent blocks : No
Null samples used in CRC calculations : Yes
Used interface : Native Win32 interface for Win NT & 2000
Gap handling : Appended to previous track
Used output format : User Defined Encoder
Selected bitrate : 1024 kBit/s
Quality : High
Add ID3 tag : No
Command line compressor : C:\Program Files\Exact Audio Copy\Flac\flac.exe
Additional command line options : -V -8 -T "artist=%a" -T "title=%t" -T "album=%g" -T "date=%y" -T "tracknumber=%n" -T "genre=%m" %s
TOC of the extracted CD
Track | Start | Length | Start sector | End sector
---------------------------------------------------------
1 | 0:00.00 | 3:18.08 | 0 | 14857
2 | 3:18.08 | 3:52.53 | 14858 | 32310
3 | 7:10.61 | 2:15.16 | 32311 | 42451
4 | 9:26.02 | 2:40.21 | 42452 | 54472
5 | 12:06.23 | 3:39.02 | 54473 | 70899
6 | 15:45.25 | 2:41.40 | 70900 | 83014
7 | 18:26.65 | 3:27.57 | 83015 | 98596
8 | 21:54.47 | 2:10.06 | 98597 | 108352
9 | 24:04.53 | 1:58.30 | 108353 | 117232
10 | 26:03.08 | 2:52.13 | 117233 | 130145
11 | 28:55.21 | 2:39.19 | 130146 | 142089
12 | 31:34.40 | 3:02.17 | 142090 | 155756
13 | 34:36.57 | 2:28.08 | 155757 | 166864
14 | 37:04.65 | 2:51.14 | 166865 | 179703
15 | 39:56.04 | 2:35.66 | 179704 | 191394
Track 1
Filename C:\EAC Rips\KPM 1000 Series - Afro Rock - (1973)\ 01 - Alan Parker - Heavy Water.wav
Pre-gap length 0:00:02.00
Peak level 96.6 %
Track quality 100.0 %
Test CRC 9B390AB3
Copy CRC 9B390AB3
Accurately ripped (confidence 3) [211BA01B]
Copy OK
Track 2
Filename C:\EAC Rips\KPM 1000 Series - Afro Rock - (1973)\ 02 - Alan Parker - Ice Breaker.wav
Pre-gap length 0:00:02.40
Peak level 96.6 %
Track quality 100.0 %
Test CRC F94E525A
Copy CRC F94E525A
Accurately ripped (confidence 3) [8C24B489]
Copy OK
Track 3
Filename C:\EAC Rips\KPM 1000 Series - Afro Rock - (1973)\ 03 - Alan Parker - Solid Satin.wav
Pre-gap length 0:00:02.38
Peak level 96.6 %
Track quality 100.0 %
Test CRC 7B38931D
Copy CRC 7B38931D
Accurately ripped (confidence 3) [916DB42E]
Copy OK
Track 4
Filename C:\EAC Rips\KPM 1000 Series - Afro Rock - (1973)\ 04 - Alan Parker - Punch Bowl.wav
Pre-gap length 0:00:02.40
Peak level 96.6 %
Track quality 100.0 %
Test CRC CD50B5CF
Copy CRC CD50B5CF
Accurately ripped (confidence 3) [633767EE]
Copy OK
Track 5
Filename C:\EAC Rips\KPM 1000 Series - Afro Rock - (1973)\ 05 - Alan Parker - Frozen Steam.wav
Pre-gap length 0:00:02.40
Peak level 96.6 %
Track quality 100.0 %
Test CRC F9F80811
Copy CRC F9F80811
Accurately ripped (confidence 3) [2B289E9F]
Copy OK
Track 6
Filename C:\EAC Rips\KPM 1000 Series - Afro Rock - (1973)\ 06 - Alan Parker - Black Light.wav
Pre-gap length 0:00:02.40
Peak level 96.6 %
Track quality 100.0 %
Test CRC 113D370D
Copy CRC 113D370D
Accurately ripped (confidence 3) [C6FD13A3]
Copy OK
Track 7
Filename C:\EAC Rips\KPM 1000 Series - Afro Rock - (1973)\ 07 - John Cameron - Range Rover.wav
Pre-gap length 0:00:02.38
Peak level 96.6 %
Track quality 100.0 %
Test CRC 047FFD51
Copy CRC 047FFD51
Accurately ripped (confidence 3) [F9B2ED31]
Copy OK
Track 8
Filename C:\EAC Rips\KPM 1000 Series - Afro Rock - (1973)\ 08 - John Cameron - Swamp Fever.wav
Pre-gap length 0:00:02.38
Peak level 96.6 %
Track quality 100.0 %
Test CRC C7C485D7
Copy CRC C7C485D7
Accurately ripped (confidence 3) [86367E08]
Copy OK
Track 9
Filename C:\EAC Rips\KPM 1000 Series - Afro Rock - (1973)\ 09 - John Cameron - Safari So Good.wav
Pre-gap length 0:00:02.40
Peak level 96.6 %
Track quality 100.0 %
Test CRC 0232E482
Copy CRC 0232E482
Accurately ripped (confidence 3) [57E41605]
Copy OK
Track 10
Filename C:\EAC Rips\KPM 1000 Series - Afro Rock - (1973)\ 10 - John Cameron - Survival.wav
Pre-gap length 0:00:02.40
Peak level 96.6 %
Track quality 100.0 %
Test CRC ED3A8B44
Copy CRC ED3A8B44
Accurately ripped (confidence 3) [2B3E77A3]
Copy OK
Track 11
Filename C:\EAC Rips\KPM 1000 Series - Afro Rock - (1973)\ 11 - John Cameron - Afro Waltz.wav
Pre-gap length 0:00:02.40
Peak level 96.6 %
Track quality 100.0 %
Test CRC 6E6DA047
Copy CRC 6E6DA047
Accurately ripped (confidence 3) [F4C32184]
Copy OK
Track 12
Filename C:\EAC Rips\KPM 1000 Series - Afro Rock - (1973)\ 12 - John Cameron - Sahara Sunrise.wav
Pre-gap length 0:00:02.38
Peak level 89.7 %
Track quality 100.0 %
Test CRC AF86AEE2
Copy CRC AF86AEE2
Accurately ripped (confidence 3) [D40EE6D2]
Copy OK
Track 13
Filename C:\EAC Rips\KPM 1000 Series - Afro Rock - (1973)\ 13 - John Cameron - Rockin Rhino.wav
Pre-gap length 0:00:02.33
Peak level 96.6 %
Track quality 99.9 %
Test CRC 7528E1BF
Copy CRC 7528E1BF
Accurately ripped (confidence 3) [FD021C09]
Copy OK
Track 14
Filename C:\EAC Rips\KPM 1000 Series - Afro Rock - (1973)\ 14 - John Cameron - Heat Haze.wav
Pre-gap length 0:00:02.34
Peak level 96.6 %
Track quality 100.0 %
Test CRC 50FB6E57
Copy CRC 50FB6E57
Accurately ripped (confidence 3) [C5509BB4]
Copy OK
Track 15
Filename C:\EAC Rips\KPM 1000 Series - Afro Rock - (1973)\ 15 - John Cameron - Afro Metropolis.wav
Pre-gap length 0:00:02.38
Peak level 96.6 %
Track quality 100.0 %
Test CRC B50E3116
Copy CRC B50E3116
Accurately ripped (confidence 3) [E03F2A94]
Copy OK
All tracks accurately ripped
No errors occurred
End of status report
 
Содержание индексной карты (.CUE)
REM GENRE Funk
REM DATE 1973
REM DISCID D709F70F
REM COMMENT "ExactAudioCopy v0.99pb4"
FILE "KPM 1000 Series - Afro Rock - (1973)\ 01 - Alan Parker - Heavy Water.wav" WAVE
TRACK 01 AUDIO
INDEX 01 00:00:00
TRACK 02 AUDIO
INDEX 00 03:15:53
FILE "KPM 1000 Series - Afro Rock - (1973)\ 02 - Alan Parker - Ice Breaker.wav" WAVE
INDEX 01 00:00:00
TRACK 03 AUDIO
INDEX 00 03:50:24
FILE "KPM 1000 Series - Afro Rock - (1973)\ 03 - Alan Parker - Solid Satin.wav" WAVE
INDEX 01 00:00:00
TRACK 04 AUDIO
INDEX 00 02:12:61
FILE "KPM 1000 Series - Afro Rock - (1973)\ 04 - Alan Parker - Punch Bowl.wav" WAVE
INDEX 01 00:00:00
TRACK 05 AUDIO
INDEX 00 02:37:66
FILE "KPM 1000 Series - Afro Rock - (1973)\ 05 - Alan Parker - Frozen Steam.wav" WAVE
INDEX 01 00:00:00
TRACK 06 AUDIO
INDEX 00 03:36:47
FILE "KPM 1000 Series - Afro Rock - (1973)\ 06 - Alan Parker - Black Light.wav" WAVE
INDEX 01 00:00:00
TRACK 07 AUDIO
INDEX 00 02:39:11
FILE "KPM 1000 Series - Afro Rock - (1973)\ 07 - John Cameron - Range Rover.wav" WAVE
INDEX 01 00:00:00
TRACK 08 AUDIO
INDEX 00 03:25:28
FILE "KPM 1000 Series - Afro Rock - (1973)\ 08 - John Cameron - Swamp Fever.wav" WAVE
INDEX 01 00:00:00
TRACK 09 AUDIO
INDEX 00 02:07:51
FILE "KPM 1000 Series - Afro Rock - (1973)\ 09 - John Cameron - Safari So Good.wav" WAVE
INDEX 01 00:00:00
TRACK 10 AUDIO
INDEX 00 01:56:00
FILE "KPM 1000 Series - Afro Rock - (1973)\ 10 - John Cameron - Survival.wav" WAVE
INDEX 01 00:00:00
TRACK 11 AUDIO
INDEX 00 02:49:58
FILE "KPM 1000 Series - Afro Rock - (1973)\ 11 - John Cameron - Afro Waltz.wav" WAVE
INDEX 01 00:00:00
TRACK 12 AUDIO
INDEX 00 02:36:65
FILE "KPM 1000 Series - Afro Rock - (1973)\ 12 - John Cameron - Sahara Sunrise.wav" WAVE
INDEX 01 00:00:00
TRACK 13 AUDIO
INDEX 00 02:59:67
FILE "KPM 1000 Series - Afro Rock - (1973)\ 13 - John Cameron - Rockin Rhino.wav" WAVE
INDEX 01 00:00:00
TRACK 14 AUDIO
INDEX 00 02:25:57
FILE "KPM 1000 Series - Afro Rock - (1973)\ 14 - John Cameron - Heat Haze.wav" WAVE
INDEX 01 00:00:00
TRACK 15 AUDIO
INDEX 00 02:48:60
FILE "KPM 1000 Series - Afro Rock - (1973)\ 15 - John Cameron - Afro Metropolis.wav" WAVE
INDEX 01 00:00:00
 
Об альбоме (сборнике)
ПРОМТ:
Африканские ритмы, джазовый инструментарий, качают вдохновение, и motherlode напуганных звуковых канавок библиотеки от двух из лучших британских маэстро, работающих в бизнесе! Альбом начало драгоценного камня 70-ых из каталога KPM - одной из большинства популярных записей, когда-либо выпускаемых меткой - и как остальные, никогда действительно сделанные для общедоступной продажи назад в это время! Несмотря на тот скромный источник, тем не менее, канавки здесь являются правильными там с самой напуганной работой, прибывающей из той стороны Атлантики в это время - блестящее постколониальное смешение акустического удара, электрических клавиатур, и справедливого бита нечеткой гитары - все, которым предоставляют упрощенный, сугубо деловой подход к ритмам, это является часто более напуганным чем работа некоторыми из больших имен в жанре. Заголовки включают "Тяжелую Воду", "Ледокол", "Твердый Атлас", "Шар Перфорации", "Замороженный Пар", и "Черное излучение" Аланом Паркером - и "Лихорадка Болота", "Рендж Ровер", "Выживание", "Афро Вальс", "Туман Тепла", "Качая Носорога", и "Афро Столицу" Джоном Камероном.
African rhythms, jazzy instrumentation, rock inspiration, and a motherlode of funky sound library grooves from two of the best British maestros working in the business! The album's an early 70s gem from the KPM catalog -- one of the most sought-after records ever issued by the label -- and like the rest, never really made for public sale back at the time! Despite that humble origin, though, the grooves here are right up there with the funkiest work coming out from that side of the Atlantic at the time -- a brilliant post-colonial blend of acoustic percussion, electric keyboards, and a fair bit of fuzzy guitar -- all presented with a stripped-down, no-nonsense approach to the rhythms that's often funkier than work by some of the bigger names in the genre. Titles include "Heavy Water", "Ice Breaker", "Solid Satin", "Punch Bowl", "Frozen Steam", and "Black Light" by Alan Parker -- and "Swamp Fever", "Range Rover", "Survival", "Afro Waltz", "Heat Haze", "Rocking Rhino", and "Afro Metropolis" by John Cameron.
22:12
268
Нет комментариев. Ваш будет первым!