Поиск

(Bossa Nova, Lounge, Chanson, Easy Listening) VA - Days Of Summer - 2000, APE (tracks+.cue), lossless

Треклист:
Days Of Summer
Жанр: Bossa Nova, Lounge, Chanson, Easy Listening
Страна-производитель диска: Germany
Год издания диска: 2000
Издатель (лейбл): Royal Ear Force
Номер по каталогу: REF0046012
Страна: Germany
Аудиокодек: APE (*.ape)
Тип рипа: tracks+.cue
Битрейт аудио: lossless
Продолжительность: 1:17:17
Источник (релизер): wata
Наличие сканов в содержимом раздачи: нет
Треклист:
1. The Addy Flor Orchestra - Days of Summer (3:21)
2. The Richie Hillman Orchestra - Rosatello (2:14)
3. The Helmuth Brandenburg Orchestra - Comin' Up (2:56)
4. Greetje Kauffeld and the Addy Flor Orchestra - Bleib' (3:01)
5. The Heinz Kiessling Orchestra - Felicidade (3:09)
6. The Pete Jacques Orchestra - Bossa de Bahia (2:24)
7. The Willy Hoffmann Orchestra - Georgette (2:16)
8. Greetje Kauffeld and the Addy Flor Orchestra - Der Mann von Welt (3:16)
9. The Addy Flor Orchestra - Last Paradise (2:57)
10. The Heinz Kiessling Orchestra - Senhorita (3:04)
11. The Charlie Steinmann Orchestra - Manatara (2:19)
12. Ulla Wiesner and the Addy Flor Orchestra - Vergessen und vorbei (2:49)
13. The Colin Frechter Orchestra - Carry On Joe (2:33)
14. The Heinz Kiessling Orchestra - Latin Carnaval (2:33)
15. The Pete Jacques Orchestra - Dengosa (2:11)
16. The Addy Flor Orchestra - Bonfa's Way (2:53)
17. The Heinz Kiessling Orchestra - Samba Fiesta (1:47)
18. The Willy Hoffmann Orchestra - Coconuts (2:52)
19. Greetje Kauffeld and the Addy Flor Orchestra - So wie ein Kind (3:29)
20. The Richie Hillmann Orchestra - Change (3:01)
21. The Pete Jacques Orchestra - Fata Morgana (3:45)
22. The Heinz Kiessling Orchestra - Straight Ahead (2:38)
23. Greetje Kauffeld and the Addy Flor Orchestra - Alles geht im Kreis (4:10)
24. The Charlie Steinmann Orchestra and Singers - Born in Spring (2:33)
25. The Willy Hoffmann Orchestra - Boule d'or (2:25)
26. Greetje Kauffeld and the Addy Flor Orchestra - Jeder Tag ist ein neues Lied (3:33)
27. The Heinz Kiessling Orchestra - Palm Beach (2:53)
 
Лог создания рипа
X Lossless Decoder version 20110212 (127.0)
XLD extraction logfile from 2011-02-13 16:45:52 +0000
Various Artists / days of summer
Used drive : PIONEER DVD-RW DVRTS08 (revision Q81F)
Ripper mode : CDParanoia III 10.2
Disable audio cache : OK for the drive with a cache less than 2750KiB
Make use of C2 pointers : NO
Read offset correction : 48
Max retry count : 100
Gap status : Analyzed, Appended (except HTOA)
TOC of the extracted CD
Track | Start | Length | Start sector | End sector
---------------------------------------------------------
1 | 00:00:00 | 03:21:63 | 0 | 15137
2 | 03:21:63 | 02:14:66 | 15138 | 25253
3 | 05:36:54 | 02:56:66 | 25254 | 38519
4 | 08:33:45 | 03:01:21 | 38520 | 52115
5 | 11:34:66 | 03:09:54 | 52116 | 66344
6 | 14:44:45 | 02:24:26 | 66345 | 77170
7 | 17:08:71 | 02:16:50 | 77171 | 87420
8 | 19:25:46 | 03:16:71 | 87421 | 102191
9 | 22:42:42 | 02:57:16 | 102192 | 115482
10 | 25:39:58 | 03:04:12 | 115483 | 129294
11 | 28:43:70 | 02:19:74 | 129295 | 139793
12 | 31:03:69 | 02:49:36 | 139794 | 152504
13 | 33:53:30 | 02:33:33 | 152505 | 164012
14 | 36:26:63 | 02:33:69 | 164013 | 175556
15 | 39:00:57 | 02:11:17 | 175557 | 185398
16 | 41:11:74 | 02:53:64 | 185399 | 198437
17 | 44:05:63 | 01:47:41 | 198438 | 206503
18 | 45:53:29 | 02:52:40 | 206504 | 219443
19 | 48:45:69 | 03:29:11 | 219444 | 235129
20 | 52:15:05 | 03:01:45 | 235130 | 248749
21 | 55:16:50 | 03:45:46 | 248750 | 265670
22 | 59:02:21 | 02:38:62 | 265671 | 277582
23 | 61:41:08 | 04:10:39 | 277583 | 296371
24 | 65:51:47 | 02:33:01 | 296372 | 307847
25 | 68:24:48 | 02:25:19 | 307848 | 318741
26 | 70:49:67 | 03:33:66 | 318742 | 334782
27 | 74:23:58 | 02:53:50 | 334783 | 347807
AccurateRip Summary
Disc not found in AccurateRip DB.
All Tracks
Album gain : -5.65 dB
Peak : 0.994171
Statistics
Read error : 0
Skipped (treated as error) : 0
Edge jitter error (maybe fixed) : 3
Atom jitter error (maybe fixed) : 3
Drift error (maybe fixed) : 0
Dropped bytes error (maybe fixed) : 0
Duplicated bytes error (maybe fixed) : 0
Track 01
Filename : /xld/What torrents/Compilations-days of summer-FLAC (level 8)/01 - Days of Summer-The Addy Flor Orchestra.flac
/xld/What torrents/Compilations-days of summer-LAME MP3 (VBR-new quality 0.0)/01 - Days of Summer-The Addy Flor Orchestra.mp3
Pre-gap length : 00:02:00
Track gain : -4.30 dB
Peak : 0.988373
CRC32 hash (test run) : DDDF5CBF
CRC32 hash : DDDF5CBF
CRC32 hash (skip zero) : 69F7E6CE
AccurateRip signature : 5775C0C4
->Track not present in AccurateRip database.
Statistics
Read error : 0
Skipped (treated as error) : 0
Edge jitter error (maybe fixed) : 0
Atom jitter error (maybe fixed) : 0
Drift error (maybe fixed) : 0
Dropped bytes error (maybe fixed) : 0
Duplicated bytes error (maybe fixed) : 0
Inconsistency in error sectors : 0
Track 02
Filename : /xld/What torrents/Compilations-days of summer-FLAC (level 8)/02 - Rosatello-The Richie Hillman Orchestra.flac
/xld/What torrents/Compilations-days of summer-LAME MP3 (VBR-new quality 0.0)/02 - Rosatello-The Richie Hillman Orchestra.mp3
Pre-gap length : 00:02:00
Track gain : -4.69 dB
Peak : 0.988495
CRC32 hash (test run) : EA875034
CRC32 hash : EA875034
CRC32 hash (skip zero) : B476910D
AccurateRip signature : 78B0CFB7
->Track not present in AccurateRip database.
Statistics
Read error : 0
Skipped (treated as error) : 0
Edge jitter error (maybe fixed) : 0
Atom jitter error (maybe fixed) : 0
Drift error (maybe fixed) : 0
Dropped bytes error (maybe fixed) : 0
Duplicated bytes error (maybe fixed) : 0
Inconsistency in error sectors : 0
Track 03
Filename : /xld/What torrents/Compilations-days of summer-FLAC (level 8)/03 - Comin' Up-The Helmuth Brandenburg Orchestra.flac
/xld/What torrents/Compilations-days of summer-LAME MP3 (VBR-new quality 0.0)/03 - Comin' Up-The Helmuth Brandenburg Orchestra.mp3
Pre-gap length : 00:02:00
Track gain : -5.34 dB
Peak : 0.891205
CRC32 hash (test run) : AB160BE9
CRC32 hash : AB160BE9
CRC32 hash (skip zero) : 1C1404D7
AccurateRip signature : 85488705
->Track not present in AccurateRip database.
Statistics
Read error : 0
Skipped (treated as error) : 0
Edge jitter error (maybe fixed) : 0
Atom jitter error (maybe fixed) : 0
Drift error (maybe fixed) : 0
Dropped bytes error (maybe fixed) : 0
Duplicated bytes error (maybe fixed) : 0
Inconsistency in error sectors : 0
Track 04
Filename : /xld/What torrents/Compilations-days of summer-FLAC (level 8)/04 - Bleib'-Greetje Kauffeld and the Addy Flor Orchestra.flac
/xld/What torrents/Compilations-days of summer-LAME MP3 (VBR-new quality 0.0)/04 - Bleib'-Greetje Kauffeld and the Addy Flor Orchestra.mp3
Pre-gap length : 00:02:00
Track gain : -3.81 dB
Peak : 0.988403
CRC32 hash (test run) : 17077DAE
CRC32 hash : 17077DAE
CRC32 hash (skip zero) : 9BC868C0
AccurateRip signature : 61F0620A
->Track not present in AccurateRip database.
Statistics
Read error : 0
Skipped (treated as error) : 0
Edge jitter error (maybe fixed) : 0
Atom jitter error (maybe fixed) : 0
Drift error (maybe fixed) : 0
Dropped bytes error (maybe fixed) : 0
Duplicated bytes error (maybe fixed) : 0
Inconsistency in error sectors : 0
Track 05
Filename : /xld/What torrents/Compilations-days of summer-FLAC (level 8)/05 - Felicidade-The Heinz Kiessling Orchestra.flac
/xld/What torrents/Compilations-days of summer-LAME MP3 (VBR-new quality 0.0)/05 - Felicidade-The Heinz Kiessling Orchestra.mp3
Pre-gap length : 00:05:35
Track gain : -6.52 dB
Peak : 0.851013
CRC32 hash (test run) : 6CF37EB6
CRC32 hash : 6CF37EB6
CRC32 hash (skip zero) : 0EC0135B
AccurateRip signature : 4D5A8AA7
->Track not present in AccurateRip database.
Statistics
Read error : 0
Skipped (treated as error) : 0
Edge jitter error (maybe fixed) : 0
Atom jitter error (maybe fixed) : 0
Drift error (maybe fixed) : 0
Dropped bytes error (maybe fixed) : 0
Duplicated bytes error (maybe fixed) : 0
Inconsistency in error sectors : 0
Track 06
Filename : /xld/What torrents/Compilations-days of summer-FLAC (level 8)/06 - Bossa de Bahia-The Pete Jacques Orchestra.flac
/xld/What torrents/Compilations-days of summer-LAME MP3 (VBR-new quality 0.0)/06 - Bossa de Bahia-The Pete Jacques Orchestra.mp3
Pre-gap length : 00:02:00
Track gain : -5.45 dB
Peak : 0.891235
CRC32 hash (test run) : FEA458D9
CRC32 hash : FEA458D9
CRC32 hash (skip zero) : FC0C2FF1
AccurateRip signature : A8C94171
->Track not present in AccurateRip database.
Statistics
Read error : 0
Skipped (treated as error) : 0
Edge jitter error (maybe fixed) : 0
Atom jitter error (maybe fixed) : 0
Drift error (maybe fixed) : 0
Dropped bytes error (maybe fixed) : 0
Duplicated bytes error (maybe fixed) : 0
Inconsistency in error sectors : 0
Track 07
Filename : /xld/What torrents/Compilations-days of summer-FLAC (level 8)/07 - Georgette-The Willy Hoffmann Orchestra.flac
/xld/What torrents/Compilations-days of summer-LAME MP3 (VBR-new quality 0.0)/07 - Georgette-The Willy Hoffmann Orchestra.mp3
Pre-gap length : 00:02:00
Track gain : -3.85 dB
Peak : 0.988434
CRC32 hash (test run) : 99B5B557
CRC32 hash : 99B5B557
CRC32 hash (skip zero) : BB16427F
AccurateRip signature : ED8174B7
->Track not present in AccurateRip database.
Statistics
Read error : 0
Skipped (treated as error) : 0
Edge jitter error (maybe fixed) : 0
Atom jitter error (maybe fixed) : 0
Drift error (maybe fixed) : 0
Dropped bytes error (maybe fixed) : 0
Duplicated bytes error (maybe fixed) : 0
Inconsistency in error sectors : 0
Track 08
Filename : /xld/What torrents/Compilations-days of summer-FLAC (level 8)/08 - Der Mann von Welt-Greetje Kauffeld and the Addy Flor Orchestra.flac
/xld/What torrents/Compilations-days of summer-LAME MP3 (VBR-new quality 0.0)/08 - Der Mann von Welt-Greetje Kauffeld and the Addy Flor Orchestra.mp3
Pre-gap length : 00:02:00
Track gain : -4.81 dB
Peak : 0.988434
CRC32 hash (test run) : 00A2901B
CRC32 hash : 00A2901B
CRC32 hash (skip zero) : 8811E900
AccurateRip signature : 7E96BC5A
->Track not present in AccurateRip database.
Statistics
Read error : 0
Skipped (treated as error) : 0
Edge jitter error (maybe fixed) : 0
Atom jitter error (maybe fixed) : 0
Drift error (maybe fixed) : 0
Dropped bytes error (maybe fixed) : 0
Duplicated bytes error (maybe fixed) : 0
Inconsistency in error sectors : 0
Track 09
Filename : /xld/What torrents/Compilations-days of summer-FLAC (level 8)/09 - Last Paradise-The Addy Flor Orchestra.flac
/xld/What torrents/Compilations-days of summer-LAME MP3 (VBR-new quality 0.0)/09 - Last Paradise-The Addy Flor Orchestra.mp3
Pre-gap length : 00:02:00
Track gain : -3.58 dB
Peak : 0.988403
CRC32 hash (test run) : 001E4C3A
CRC32 hash : 001E4C3A
CRC32 hash (skip zero) : 5D1857D7
AccurateRip signature : 625C996D
->Track not present in AccurateRip database.
Statistics
Read error : 0
Skipped (treated as error) : 0
Edge jitter error (maybe fixed) : 0
Atom jitter error (maybe fixed) : 0
Drift error (maybe fixed) : 0
Dropped bytes error (maybe fixed) : 0
Duplicated bytes error (maybe fixed) : 0
Inconsistency in error sectors : 0
Track 10
Filename : /xld/What torrents/Compilations-days of summer-FLAC (level 8)/10 - Senhorita-The Heinz Kiessling Orchestra.flac
/xld/What torrents/Compilations-days of summer-LAME MP3 (VBR-new quality 0.0)/10 - Senhorita-The Heinz Kiessling Orchestra.mp3
Pre-gap length : 00:02:00
Track gain : -4.87 dB
Peak : 0.794281
CRC32 hash (test run) : 03B19CA2
CRC32 hash : 03B19CA2
CRC32 hash (skip zero) : 01476E22
AccurateRip signature : 3BFB4CC8
->Track not present in AccurateRip database.
Statistics
Read error : 0
Skipped (treated as error) : 0
Edge jitter error (maybe fixed) : 0
Atom jitter error (maybe fixed) : 0
Drift error (maybe fixed) : 0
Dropped bytes error (maybe fixed) : 0
Duplicated bytes error (maybe fixed) : 0
Inconsistency in error sectors : 0
Track 11
Filename : /xld/What torrents/Compilations-days of summer-FLAC (level 8)/11 - Manatara-The Charlie Steinmann Orchestra.flac
/xld/What torrents/Compilations-days of summer-LAME MP3 (VBR-new quality 0.0)/11 - Manatara-The Charlie Steinmann Orchestra.mp3
Pre-gap length : 00:02:00
Track gain : -3.15 dB
Peak : 0.794312
CRC32 hash (test run) : A3E8731E
CRC32 hash : A3E8731E
CRC32 hash (skip zero) : 57FCDAB1
AccurateRip signature : 5DCA496B
->Track not present in AccurateRip database.
Statistics
Read error : 0
Skipped (treated as error) : 0
Edge jitter error (maybe fixed) : 0
Atom jitter error (maybe fixed) : 0
Drift error (maybe fixed) : 0
Dropped bytes error (maybe fixed) : 0
Duplicated bytes error (maybe fixed) : 0
Inconsistency in error sectors : 0
Track 12
Filename : /xld/What torrents/Compilations-days of summer-FLAC (level 8)/12 - Vergessen und vorbei-Ulla Wiesner and the Addy Flor Orchestra.flac
/xld/What torrents/Compilations-days of summer-LAME MP3 (VBR-new quality 0.0)/12 - Vergessen und vorbei-Ulla Wiesner and the Addy Flor Orchestra.mp3
Pre-gap length : 00:02:00
Track gain : -6.76 dB
Peak : 0.988525
CRC32 hash (test run) : ACD8E1E6
CRC32 hash : ACD8E1E6
CRC32 hash (skip zero) : 88CC180F
AccurateRip signature : B38CCDCE
->Track not present in AccurateRip database.
Statistics
Read error : 0
Skipped (treated as error) : 0
Edge jitter error (maybe fixed) : 0
Atom jitter error (maybe fixed) : 0
Drift error (maybe fixed) : 0
Dropped bytes error (maybe fixed) : 0
Duplicated bytes error (maybe fixed) : 0
Inconsistency in error sectors : 0
Track 13
Filename : /xld/What torrents/Compilations-days of summer-FLAC (level 8)/13 - Carry On Joe-The Colin Frechter Orchestra.flac
/xld/What torrents/Compilations-days of summer-LAME MP3 (VBR-new quality 0.0)/13 - Carry On Joe-The Colin Frechter Orchestra.mp3
Pre-gap length : 00:02:00
Track gain : -5.37 dB
Peak : 0.988434
CRC32 hash (test run) : EA2041B6
CRC32 hash : EA2041B6
CRC32 hash (skip zero) : EFF17A3D
AccurateRip signature : 2A59B7C1
->Track not present in AccurateRip database.
Statistics
Read error : 0
Skipped (treated as error) : 0
Edge jitter error (maybe fixed) : 0
Atom jitter error (maybe fixed) : 0
Drift error (maybe fixed) : 0
Dropped bytes error (maybe fixed) : 0
Duplicated bytes error (maybe fixed) : 0
Inconsistency in error sectors : 0
Track 14
Filename : /xld/What torrents/Compilations-days of summer-FLAC (level 8)/14 - Latin Carnaval-The Heinz Kiessling Orchestra.flac
/xld/What torrents/Compilations-days of summer-LAME MP3 (VBR-new quality 0.0)/14 - Latin Carnaval-The Heinz Kiessling Orchestra.mp3
Pre-gap length : 00:02:00
Track gain : -5.63 dB
Peak : 0.794220
CRC32 hash (test run) : FC145A3D
CRC32 hash : FC145A3D
CRC32 hash (skip zero) : 8F54BD4F
AccurateRip signature : C65D0638
->Track not present in AccurateRip database.
Statistics
Read error : 0
Skipped (treated as error) : 0
Edge jitter error (maybe fixed) : 1
Atom jitter error (maybe fixed) : 1
Drift error (maybe fixed) : 0
Dropped bytes error (maybe fixed) : 0
Duplicated bytes error (maybe fixed) : 0
Inconsistency in error sectors : 0
Track 15
Filename : /xld/What torrents/Compilations-days of summer-FLAC (level 8)/15 - Dengosa-The Pete Jacques Orchestra.flac
/xld/What torrents/Compilations-days of summer-LAME MP3 (VBR-new quality 0.0)/15 - Dengosa-The Pete Jacques Orchestra.mp3
Pre-gap length : 00:02:00
Track gain : -5.07 dB
Peak : 0.891235
CRC32 hash (test run) : 9106DB66
CRC32 hash : 9106DB66
CRC32 hash (skip zero) : C61524D9
AccurateRip signature : 859789BE
->Track not present in AccurateRip database.
Statistics
Read error : 0
Skipped (treated as error) : 0
Edge jitter error (maybe fixed) : 0
Atom jitter error (maybe fixed) : 0
Drift error (maybe fixed) : 0
Dropped bytes error (maybe fixed) : 0
Duplicated bytes error (maybe fixed) : 0
Inconsistency in error sectors : 0
Track 16
Filename : /xld/What torrents/Compilations-days of summer-FLAC (level 8)/16 - Bonfa's Way-The Addy Flor Orchestra.flac
/xld/What torrents/Compilations-days of summer-LAME MP3 (VBR-new quality 0.0)/16 - Bonfa's Way-The Addy Flor Orchestra.mp3
Pre-gap length : 00:02:00
Track gain : -6.20 dB
Peak : 0.994171
CRC32 hash (test run) : 481A79BD
CRC32 hash : 481A79BD
CRC32 hash (skip zero) : 269240B1
AccurateRip signature : D2CCF9D1
->Track not present in AccurateRip database.
Statistics
Read error : 0
Skipped (treated as error) : 0
Edge jitter error (maybe fixed) : 0
Atom jitter error (maybe fixed) : 0
Drift error (maybe fixed) : 0
Dropped bytes error (maybe fixed) : 0
Duplicated bytes error (maybe fixed) : 0
Inconsistency in error sectors : 0
Track 17
Filename : /xld/What torrents/Compilations-days of summer-FLAC (level 8)/17 - Samba Fiesta-The Heinz Kiessling Orchestra.flac
/xld/What torrents/Compilations-days of summer-LAME MP3 (VBR-new quality 0.0)/17 - Samba Fiesta-The Heinz Kiessling Orchestra.mp3
Pre-gap length : 00:02:00
Track gain : -8.11 dB
Peak : 0.988647
CRC32 hash (test run) : 2F8081A7
CRC32 hash : 2F8081A7
CRC32 hash (skip zero) : 45F7B7B9
AccurateRip signature : 0DD7FFF4
->Track not present in AccurateRip database.
Statistics
Read error : 0
Skipped (treated as error) : 0
Edge jitter error (maybe fixed) : 1
Atom jitter error (maybe fixed) : 1
Drift error (maybe fixed) : 0
Dropped bytes error (maybe fixed) : 0
Duplicated bytes error (maybe fixed) : 0
Inconsistency in error sectors : 0
Track 18
Filename : /xld/What torrents/Compilations-days of summer-FLAC (level 8)/18 - Coconuts-The Willy Hoffmann Orchestra.flac
/xld/What torrents/Compilations-days of summer-LAME MP3 (VBR-new quality 0.0)/18 - Coconuts-The Willy Hoffmann Orchestra.mp3
Pre-gap length : 00:02:00
Track gain : -5.01 dB
Peak : 0.794281
CRC32 hash (test run) : A0B8FB77
CRC32 hash : A0B8FB77
CRC32 hash (skip zero) : 62669266
AccurateRip signature : 50CD62F0
->Track not present in AccurateRip database.
Statistics
Read error : 0
Skipped (treated as error) : 0
Edge jitter error (maybe fixed) : 0
Atom jitter error (maybe fixed) : 0
Drift error (maybe fixed) : 0
Dropped bytes error (maybe fixed) : 0
Duplicated bytes error (maybe fixed) : 0
Inconsistency in error sectors : 0
Track 19
Filename : /xld/What torrents/Compilations-days of summer-FLAC (level 8)/19 - So wie ein Kind-Greetje Kauffeld and the Addy Flor Orchestra.flac
/xld/What torrents/Compilations-days of summer-LAME MP3 (VBR-new quality 0.0)/19 - So wie ein Kind-Greetje Kauffeld and the Addy Flor Orchestra.mp3
Pre-gap length : 00:02:00
Track gain : -4.80 dB
Peak : 0.988373
CRC32 hash (test run) : 84F3DB8C
CRC32 hash : 84F3DB8C
CRC32 hash (skip zero) : 89A458D2
AccurateRip signature : D7AB74FA
->Track not present in AccurateRip database.
Statistics
Read error : 0
Skipped (treated as error) : 0
Edge jitter error (maybe fixed) : 0
Atom jitter error (maybe fixed) : 0
Drift error (maybe fixed) : 0
Dropped bytes error (maybe fixed) : 0
Duplicated bytes error (maybe fixed) : 0
Inconsistency in error sectors : 0
Track 20
Filename : /xld/What torrents/Compilations-days of summer-FLAC (level 8)/20 - Change-The Richie Hillmann Orchestra.flac
/xld/What torrents/Compilations-days of summer-LAME MP3 (VBR-new quality 0.0)/20 - Change-The Richie Hillmann Orchestra.mp3
Pre-gap length : 00:02:00
Track gain : -5.18 dB
Peak : 0.891174
CRC32 hash (test run) : E8D11A2D
CRC32 hash : E8D11A2D
CRC32 hash (skip zero) : 8FE143BB
AccurateRip signature : 86D7BA60
->Track not present in AccurateRip database.
Statistics
Read error : 0
Skipped (treated as error) : 0
Edge jitter error (maybe fixed) : 0
Atom jitter error (maybe fixed) : 0
Drift error (maybe fixed) : 0
Dropped bytes error (maybe fixed) : 0
Duplicated bytes error (maybe fixed) : 0
Inconsistency in error sectors : 0
Track 21
Filename : /xld/What torrents/Compilations-days of summer-FLAC (level 8)/21 - Fata Morgana-The Pete Jacques Orchestra.flac
/xld/What torrents/Compilations-days of summer-LAME MP3 (VBR-new quality 0.0)/21 - Fata Morgana-The Pete Jacques Orchestra.mp3
Pre-gap length : 00:02:00
Track gain : -4.58 dB
Peak : 0.891083
CRC32 hash (test run) : 49BEA7F9
CRC32 hash : 49BEA7F9
CRC32 hash (skip zero) : 0563D9CB
AccurateRip signature : 02AC5AC7
->Track not present in AccurateRip database.
Statistics
Read error : 0
Skipped (treated as error) : 0
Edge jitter error (maybe fixed) : 0
Atom jitter error (maybe fixed) : 0
Drift error (maybe fixed) : 0
Dropped bytes error (maybe fixed) : 0
Duplicated bytes error (maybe fixed) : 0
Inconsistency in error sectors : 0
Track 22
Filename : /xld/What torrents/Compilations-days of summer-FLAC (level 8)/22 - Straight Ahead-The Heinz Kiessling Orchestra.flac
/xld/What torrents/Compilations-days of summer-LAME MP3 (VBR-new quality 0.0)/22 - Straight Ahead-The Heinz Kiessling Orchestra.mp3
Pre-gap length : 00:02:00
Track gain : -8.91 dB
Peak : 0.891205
CRC32 hash (test run) : 0C97308B
CRC32 hash : 0C97308B
CRC32 hash (skip zero) : ED1480E8
AccurateRip signature : E89DAC0A
->Track not present in AccurateRip database.
Statistics
Read error : 0
Skipped (treated as error) : 0
Edge jitter error (maybe fixed) : 1
Atom jitter error (maybe fixed) : 1
Drift error (maybe fixed) : 0
Dropped bytes error (maybe fixed) : 0
Duplicated bytes error (maybe fixed) : 0
Inconsistency in error sectors : 0
Track 23
Filename : /xld/What torrents/Compilations-days of summer-FLAC (level 8)/23 - Alles geht im Kreis-Greetje Kauffeld and the Addy Flor Orchestra.flac
/xld/What torrents/Compilations-days of summer-LAME MP3 (VBR-new quality 0.0)/23 - Alles geht im Kreis-Greetje Kauffeld and the Addy Flor Orchestra.mp3
Pre-gap length : 00:02:00
Track gain : -3.49 dB
Peak : 0.988464
CRC32 hash (test run) : 22246201
CRC32 hash : 22246201
CRC32 hash (skip zero) : B74A8B29
AccurateRip signature : 89EBCBE0
->Track not present in AccurateRip database.
Statistics
Read error : 0
Skipped (treated as error) : 0
Edge jitter error (maybe fixed) : 0
Atom jitter error (maybe fixed) : 0
Drift error (maybe fixed) : 0
Dropped bytes error (maybe fixed) : 0
Duplicated bytes error (maybe fixed) : 0
Inconsistency in error sectors : 0
Track 24
Filename : /xld/What torrents/Compilations-days of summer-FLAC (level 8)/24 - Born in Spring-The Charlie Steinmann Orchestra and Singers.flac
/xld/What torrents/Compilations-days of summer-LAME MP3 (VBR-new quality 0.0)/24 - Born in Spring-The Charlie Steinmann Orchestra and Singers.mp3
Pre-gap length : 00:02:00
Track gain : -5.08 dB
Peak : 0.988495
CRC32 hash (test run) : BC2B2051
CRC32 hash : BC2B2051
CRC32 hash (skip zero) : AED48ECE
AccurateRip signature : 9633637F
->Track not present in AccurateRip database.
Statistics
Read error : 0
Skipped (treated as error) : 0
Edge jitter error (maybe fixed) : 0
Atom jitter error (maybe fixed) : 0
Drift error (maybe fixed) : 0
Dropped bytes error (maybe fixed) : 0
Duplicated bytes error (maybe fixed) : 0
Inconsistency in error sectors : 0
Track 25
Filename : /xld/What torrents/Compilations-days of summer-FLAC (level 8)/25 - Boule d'or-The Willy Hoffmann Orchestra.flac
/xld/What torrents/Compilations-days of summer-LAME MP3 (VBR-new quality 0.0)/25 - Boule d'or-The Willy Hoffmann Orchestra.mp3
Pre-gap length : 00:02:00
Track gain : -4.94 dB
Peak : 0.794342
CRC32 hash (test run) : 19681520
CRC32 hash : 19681520
CRC32 hash (skip zero) : CEB839DF
AccurateRip signature : EEAAF47F
->Track not present in AccurateRip database.
Statistics
Read error : 0
Skipped (treated as error) : 0
Edge jitter error (maybe fixed) : 0
Atom jitter error (maybe fixed) : 0
Drift error (maybe fixed) : 0
Dropped bytes error (maybe fixed) : 0
Duplicated bytes error (maybe fixed) : 0
Inconsistency in error sectors : 0
Track 26
Filename : /xld/What torrents/Compilations-days of summer-FLAC (level 8)/26 - Jeder Tag ist ein neues Lied-Greetje Kauffeld and the Addy Flor Orchestra.flac
/xld/What torrents/Compilations-days of summer-LAME MP3 (VBR-new quality 0.0)/26 - Jeder Tag ist ein neues Lied-Greetje Kauffeld and the Addy Flor Orchestra.mp3
Pre-gap length : 00:02:00
Track gain : -3.92 dB
Peak : 0.988464
CRC32 hash (test run) : F80EF871
CRC32 hash : F80EF871
CRC32 hash (skip zero) : 546CF54D
AccurateRip signature : 8EC2B3E2
->Track not present in AccurateRip database.
Statistics
Read error : 0
Skipped (treated as error) : 0
Edge jitter error (maybe fixed) : 0
Atom jitter error (maybe fixed) : 0
Drift error (maybe fixed) : 0
Dropped bytes error (maybe fixed) : 0
Duplicated bytes error (maybe fixed) : 0
Inconsistency in error sectors : 0
Track 27
Filename : /xld/What torrents/Compilations-days of summer-FLAC (level 8)/27 - Palm Beach-The Heinz Kiessling Orchestra.flac
/xld/What torrents/Compilations-days of summer-LAME MP3 (VBR-new quality 0.0)/27 - Palm Beach-The Heinz Kiessling Orchestra.mp3
Pre-gap length : 00:02:00
Track gain : -2.32 dB
Peak : 0.707855
CRC32 hash (test run) : 894B661B
CRC32 hash : 894B661B
CRC32 hash (skip zero) : F56546D7
AccurateRip signature : 16DF6F19
->Track not present in AccurateRip database.
Statistics
Read error : 0
Skipped (treated as error) : 0
Edge jitter error (maybe fixed) : 0
Atom jitter error (maybe fixed) : 0
Drift error (maybe fixed) : 0
Dropped bytes error (maybe fixed) : 0
Duplicated bytes error (maybe fixed) : 0
Inconsistency in error sectors : 0
No errors occurred
End of status report
 
Содержание индексной карты (.CUE)
TITLE "days of summer"
CATALOG 6957344521040
REM DATE 2000
REM DISCID 85121D1B
REM REPLAYGAIN_ALBUM_GAIN -5.65 dB
REM REPLAYGAIN_ALBUM_PEAK 0.994171
FILE "01 - Days of Summer-The Addy Flor Orchestra.wav" WAVE
TRACK 01 AUDIO
TITLE "Days of Summer"
PERFORMER "The Addy Flor Orchestra"
ISRC DEN447500035
FLAGS DCP
REM REPLAYGAIN_TRACK_GAIN -4.30 dB
REM REPLAYGAIN_TRACK_PEAK 0.988373
INDEX 01 00:00:00
TRACK 02 AUDIO
TITLE "Rosatello"
PERFORMER "The Richie Hillman Orchestra"
ISRC DEN447800013
FLAGS DCP
REM REPLAYGAIN_TRACK_GAIN -4.69 dB
REM REPLAYGAIN_TRACK_PEAK 0.988495
INDEX 00 03:19:63
FILE "02 - Rosatello-The Richie Hillman Orchestra.wav" WAVE
INDEX 01 00:00:00
TRACK 03 AUDIO
TITLE "Comin' Up"
PERFORMER "The Helmuth Brandenburg Orchestra"
ISRC DEN447400010
FLAGS DCP
REM REPLAYGAIN_TRACK_GAIN -5.34 dB
REM REPLAYGAIN_TRACK_PEAK 0.891205
INDEX 00 02:12:66
FILE "03 - Comin' Up-The Helmuth Brandenburg Orchestra.wav" WAVE
INDEX 01 00:00:00
TRACK 04 AUDIO
TITLE "Bleib'"
PERFORMER "Greetje Kauffeld and the Addy Flor Orchestra"
ISRC DEN447500001
FLAGS DCP
REM REPLAYGAIN_TRACK_GAIN -3.81 dB
REM REPLAYGAIN_TRACK_PEAK 0.988403
INDEX 00 02:54:66
FILE "04 - Bleib'-Greetje Kauffeld and the Addy Flor Orchestra.wav" WAVE
INDEX 01 00:00:00
TRACK 05 AUDIO
TITLE "Felicidade"
PERFORMER "The Heinz Kiessling Orchestra"
ISRC DEN446400027
FLAGS DCP
REM REPLAYGAIN_TRACK_GAIN -6.52 dB
REM REPLAYGAIN_TRACK_PEAK 0.851013
INDEX 00 02:55:61
FILE "05 - Felicidade-The Heinz Kiessling Orchestra.wav" WAVE
INDEX 01 00:00:00
TRACK 06 AUDIO
TITLE "Bossa de Bahia"
PERFORMER "The Pete Jacques Orchestra"
ISRC DEN446900070
FLAGS DCP
REM REPLAYGAIN_TRACK_GAIN -5.45 dB
REM REPLAYGAIN_TRACK_PEAK 0.891235
INDEX 00 03:07:54
FILE "06 - Bossa de Bahia-The Pete Jacques Orchestra.wav" WAVE
INDEX 01 00:00:00
TRACK 07 AUDIO
TITLE "Georgette"
PERFORMER "The Willy Hoffmann Orchestra"
ISRC DEN446800023
FLAGS DCP
REM REPLAYGAIN_TRACK_GAIN -3.85 dB
REM REPLAYGAIN_TRACK_PEAK 0.988434
INDEX 00 02:22:26
FILE "07 - Georgette-The Willy Hoffmann Orchestra.wav" WAVE
INDEX 01 00:00:00
TRACK 08 AUDIO
TITLE "Der Mann von Welt"
PERFORMER "Greetje Kauffeld and the Addy Flor Orchestra"
ISRC DEN447500005
FLAGS DCP
REM REPLAYGAIN_TRACK_GAIN -4.81 dB
REM REPLAYGAIN_TRACK_PEAK 0.988434
INDEX 00 02:14:50
FILE "08 - Der Mann von Welt-Greetje Kauffeld and the Addy Flor Orchestra.wav" WAVE
INDEX 01 00:00:00
TRACK 09 AUDIO
TITLE "Last Paradise"
PERFORMER "The Addy Flor Orchestra"
ISRC DEN447500036
FLAGS DCP
REM REPLAYGAIN_TRACK_GAIN -3.58 dB
REM REPLAYGAIN_TRACK_PEAK 0.988403
INDEX 00 03:14:71
FILE "09 - Last Paradise-The Addy Flor Orchestra.wav" WAVE
INDEX 01 00:00:00
TRACK 10 AUDIO
TITLE "Senhorita"
PERFORMER "The Heinz Kiessling Orchestra"
ISRC DEN446500036
FLAGS DCP
REM REPLAYGAIN_TRACK_GAIN -4.87 dB
REM REPLAYGAIN_TRACK_PEAK 0.794281
INDEX 00 02:55:16
FILE "10 - Senhorita-The Heinz Kiessling Orchestra.wav" WAVE
INDEX 01 00:00:00
TRACK 11 AUDIO
TITLE "Manatara"
PERFORMER "The Charlie Steinmann Orchestra"
ISRC DEN446600011
FLAGS DCP
REM REPLAYGAIN_TRACK_GAIN -3.15 dB
REM REPLAYGAIN_TRACK_PEAK 0.794312
INDEX 00 03:02:12
FILE "11 - Manatara-The Charlie Steinmann Orchestra.wav" WAVE
INDEX 01 00:00:00
TRACK 12 AUDIO
TITLE "Vergessen und vorbei"
PERFORMER "Ulla Wiesner and the Addy Flor Orchestra"
ISRC DEN446900004
FLAGS DCP
REM REPLAYGAIN_TRACK_GAIN -6.76 dB
REM REPLAYGAIN_TRACK_PEAK 0.988525
INDEX 00 02:17:74
FILE "12 - Vergessen und vorbei-Ulla Wiesner and the Addy Flor Orchestra.wav" WAVE
INDEX 01 00:00:00
TRACK 13 AUDIO
TITLE "Carry On Joe"
PERFORMER "The Colin Frechter Orchestra"
ISRC DEN447100015
FLAGS DCP
REM REPLAYGAIN_TRACK_GAIN -5.37 dB
REM REPLAYGAIN_TRACK_PEAK 0.988434
INDEX 00 02:47:36
FILE "13 - Carry On Joe-The Colin Frechter Orchestra.wav" WAVE
INDEX 01 00:00:00
TRACK 14 AUDIO
TITLE "Latin Carnaval"
PERFORMER "The Heinz Kiessling Orchestra"
ISRC DEN446500035
FLAGS DCP
REM REPLAYGAIN_TRACK_GAIN -5.63 dB
REM REPLAYGAIN_TRACK_PEAK 0.794220
INDEX 00 02:31:33
FILE "14 - Latin Carnaval-The Heinz Kiessling Orchestra.wav" WAVE
INDEX 01 00:00:00
TRACK 15 AUDIO
TITLE "Dengosa"
PERFORMER "The Pete Jacques Orchestra"
ISRC DEN446900062
FLAGS DCP
REM REPLAYGAIN_TRACK_GAIN -5.07 dB
REM REPLAYGAIN_TRACK_PEAK 0.891235
INDEX 00 02:31:69
FILE "15 - Dengosa-The Pete Jacques Orchestra.wav" WAVE
INDEX 01 00:00:00
TRACK 16 AUDIO
TITLE "Bonfa's Way"
PERFORMER "The Addy Flor Orchestra"
ISRC DEN447600004
FLAGS DCP
REM REPLAYGAIN_TRACK_GAIN -6.20 dB
REM REPLAYGAIN_TRACK_PEAK 0.994171
INDEX 00 02:09:17
FILE "16 - Bonfa's Way-The Addy Flor Orchestra.wav" WAVE
INDEX 01 00:00:00
TRACK 17 AUDIO
TITLE "Samba Fiesta"
PERFORMER "The Heinz Kiessling Orchestra"
ISRC DEN446600084
FLAGS DCP
REM REPLAYGAIN_TRACK_GAIN -8.11 dB
REM REPLAYGAIN_TRACK_PEAK 0.988647
INDEX 00 02:51:64
FILE "17 - Samba Fiesta-The Heinz Kiessling Orchestra.wav" WAVE
INDEX 01 00:00:00
TRACK 18 AUDIO
TITLE "Coconuts"
PERFORMER "The Willy Hoffmann Orchestra"
ISRC DEN446800026
FLAGS DCP
REM REPLAYGAIN_TRACK_GAIN -5.01 dB
REM REPLAYGAIN_TRACK_PEAK 0.794281
INDEX 00 01:45:41
FILE "18 - Coconuts-The Willy Hoffmann Orchestra.wav" WAVE
INDEX 01 00:00:00
TRACK 19 AUDIO
TITLE "So wie ein Kind"
PERFORMER "Greetje Kauffeld and the Addy Flor Orchestra"
ISRC DEN447500002
FLAGS DCP
REM REPLAYGAIN_TRACK_GAIN -4.80 dB
REM REPLAYGAIN_TRACK_PEAK 0.988373
INDEX 00 02:50:40
FILE "19 - So wie ein Kind-Greetje Kauffeld and the Addy Flor Orchestra.wav" WAVE
INDEX 01 00:00:00
TRACK 20 AUDIO
TITLE "Change"
PERFORMER "The Richie Hillmann Orchestra"
ISRC DEN447800010
FLAGS DCP
REM REPLAYGAIN_TRACK_GAIN -5.18 dB
REM REPLAYGAIN_TRACK_PEAK 0.891174
INDEX 00 03:27:11
FILE "20 - Change-The Richie Hillmann Orchestra.wav" WAVE
INDEX 01 00:00:00
TRACK 21 AUDIO
TITLE "Fata Morgana"
PERFORMER "The Pete Jacques Orchestra"
ISRC DEN447000017
FLAGS DCP
REM REPLAYGAIN_TRACK_GAIN -4.58 dB
REM REPLAYGAIN_TRACK_PEAK 0.891083
INDEX 00 02:59:45
FILE "21 - Fata Morgana-The Pete Jacques Orchestra.wav" WAVE
INDEX 01 00:00:00
TRACK 22 AUDIO
TITLE "Straight Ahead"
PERFORMER "The Heinz Kiessling Orchestra"
ISRC DEN447000002
FLAGS DCP
REM REPLAYGAIN_TRACK_GAIN -8.91 dB
REM REPLAYGAIN_TRACK_PEAK 0.891205
INDEX 00 03:43:46
FILE "22 - Straight Ahead-The Heinz Kiessling Orchestra.wav" WAVE
INDEX 01 00:00:00
TRACK 23 AUDIO
TITLE "Alles geht im Kreis"
PERFORMER "Greetje Kauffeld and the Addy Flor Orchestra"
ISRC DEN447500004
FLAGS DCP
REM REPLAYGAIN_TRACK_GAIN -3.49 dB
REM REPLAYGAIN_TRACK_PEAK 0.988464
INDEX 00 02:36:62
FILE "23 - Alles geht im Kreis-Greetje Kauffeld and the Addy Flor Orchestra.wav" WAVE
INDEX 01 00:00:00
TRACK 24 AUDIO
TITLE "Born in Spring"
PERFORMER "The Charlie Steinmann Orchestra and Singers"
ISRC DEN446900041
FLAGS DCP
REM REPLAYGAIN_TRACK_GAIN -5.08 dB
REM REPLAYGAIN_TRACK_PEAK 0.988495
INDEX 00 04:08:39
FILE "24 - Born in Spring-The Charlie Steinmann Orchestra and Singers.wav" WAVE
INDEX 01 00:00:00
TRACK 25 AUDIO
TITLE "Boule d'or"
PERFORMER "The Willy Hoffmann Orchestra"
ISRC DEN446800019
FLAGS DCP
REM REPLAYGAIN_TRACK_GAIN -4.94 dB
REM REPLAYGAIN_TRACK_PEAK 0.794342
INDEX 00 02:31:01
FILE "25 - Boule d'or-The Willy Hoffmann Orchestra.wav" WAVE
INDEX 01 00:00:00
TRACK 26 AUDIO
TITLE "Jeder Tag ist ein neues Lied"
PERFORMER "Greetje Kauffeld and the Addy Flor Orchestra"
ISRC DEN447500003
FLAGS DCP
REM REPLAYGAIN_TRACK_GAIN -3.92 dB
REM REPLAYGAIN_TRACK_PEAK 0.988464
INDEX 00 02:23:19
FILE "26 - Jeder Tag ist ein neues Lied-Greetje Kauffeld and the Addy Flor Orchestra.wav" WAVE
INDEX 01 00:00:00
TRACK 27 AUDIO
TITLE "Palm Beach"
PERFORMER "The Heinz Kiessling Orchestra"
ISRC DEN446500053
FLAGS DCP
REM REPLAYGAIN_TRACK_GAIN -2.32 dB
REM REPLAYGAIN_TRACK_PEAK 0.707855
INDEX 00 03:31:66
FILE "27 - Palm Beach-The Heinz Kiessling Orchestra.wav" WAVE
INDEX 01 00:00:00
Доп. информация: Это издание 2000 года. Обложка от 2006, с меньшим количеством треков на три.
Easy Listening от немецких исполнителей 60-х/70-х гг.
22:13
312
Нет комментариев. Ваш будет первым!