Поиск

(Ethnic Jazz) Yochk'o Seffer - Magyar Etno - 1996, FLAC (tracks+.cue) lossless

Yochk'o Seffer - Magyar Etno
Жанр: Ethnic Jazz
Страна-производитель диска: Hungary
Год издания диска: 1996
Издатель (лейбл): Pannon Jazz JOKA
Номер по каталогу: PJ 1028
Аудио кодек: FLAC (*.flac)
Тип рипа: tracks+.cue
Битрейт аудио: lossless
Продолжительность: 49:26
Источник (релизер): собственный рип с оригинального диска.
Наличие сканов в содержимом раздачи: да
Треклист:
01. Vacuum-cleaning
02. Deceived Lady
03. Bülent
04. Pain bleu
05. Feeling Tipsy
06. Gonna Go Harvestin
07. Epistrophy
08. Red Throat
09. Keys In C Mood
 
Лог создания рипа
Exact Audio Copy V0.99 prebeta 5 from 4. May 2009
EAC extraction logfile from 2. May 2011, 23:20
Yochk'o Seffer / Magyar Etno
Used drive : TSSTcorpCDDVDW SH-S222A Adapter: 1 ID: 0
Read mode : Secure
Utilize accurate stream : Yes
Defeat audio cache : Yes
Make use of C2 pointers : No
Read offset correction : 6
Overread into Lead-In and Lead-Out : No
Fill up missing offset samples with silence : Yes
Delete leading and trailing silent blocks : No
Null samples used in CRC calculations : Yes
Used interface : Installed external ASPI interface
Gap handling : Appended to previous track
Used output format : User Defined Encoder
Selected bitrate : 768 kBit/s
Quality : High
Add ID3 tag : No
Command line compressor : C:\Tool\Compress\FLAC\flac.exe
Additional command line options : -8 -V -T "ARTIST=%a" -T "TITLE=%t" -T "ALBUM=%g" -T "DATE=%y" -T "TRACKNUMBER=%n" -T "TOTALTRACKS=%x" -T "GENRE=%m" -T "ALBUM ARTIST=%v" -T "COMMENT=EAC V0.99 prebeta 5, Secure Mode, Test & Copy, AccurateRip, FLAC -8" %s
TOC of the extracted CD
Track | Start | Length | Start sector | End sector
---------------------------------------------------------
1 | 0:00.00 | 6:40.71 | 0 | 30070
2 | 6:40.71 | 5:59.36 | 30071 | 57031
3 | 12:40.32 | 4:06.16 | 57032 | 75497
4 | 16:46.48 | 7:36.31 | 75498 | 109728
5 | 24:23.04 | 6:22.22 | 109729 | 138400
6 | 30:45.26 | 4:43.50 | 138401 | 159675
7 | 35:29.01 | 5:22.43 | 159676 | 183868
8 | 40:51.44 | 3:29.62 | 183869 | 199605
9 | 44:21.31 | 5:05.36 | 199606 | 222516
Track 1
Filename C:\! UPLOAD\Yochk'o Seffer - Magyar Etno (1996) [FLAC] {Pannon Jazz}\01 - Vacuum-cleaning.wav
Pre-gap length 0:00:02.00
Peak level 100.0 %
Track quality 100.0 %
Test CRC 1360E0F5
Copy CRC 1360E0F5
Track not present in AccurateRip database
Copy OK
Track 2
Filename C:\! UPLOAD\Yochk'o Seffer - Magyar Etno (1996) [FLAC] {Pannon Jazz}\02 - Deceived Lady.wav
Pre-gap length 0:00:02.00
Peak level 81.2 %
Track quality 100.0 %
Test CRC 0248825D
Copy CRC 0248825D
Track not present in AccurateRip database
Copy OK
Track 3
Filename C:\! UPLOAD\Yochk'o Seffer - Magyar Etno (1996) [FLAC] {Pannon Jazz}\03 - Bulent.wav
Pre-gap length 0:00:01.98
Peak level 77.5 %
Track quality 100.0 %
Test CRC A5D8A62D
Copy CRC A5D8A62D
Track not present in AccurateRip database
Copy OK
Track 4
Filename C:\! UPLOAD\Yochk'o Seffer - Magyar Etno (1996) [FLAC] {Pannon Jazz}\04 - Pain bleu.wav
Pre-gap length 0:00:01.98
Peak level 100.0 %
Track quality 100.0 %
Test CRC 779299E3
Copy CRC 779299E3
Track not present in AccurateRip database
Copy OK
Track 5
Filename C:\! UPLOAD\Yochk'o Seffer - Magyar Etno (1996) [FLAC] {Pannon Jazz}\05 - Feeling Tipsy.wav
Pre-gap length 0:00:01.98
Peak level 92.6 %
Track quality 100.0 %
Test CRC 7C9AFA20
Copy CRC 7C9AFA20
Track not present in AccurateRip database
Copy OK
Track 6
Filename C:\! UPLOAD\Yochk'o Seffer - Magyar Etno (1996) [FLAC] {Pannon Jazz}\06 - Gonna Go Harvestin.wav
Pre-gap length 0:00:01.98
Peak level 93.7 %
Track quality 100.0 %
Test CRC D0CD916C
Copy CRC D0CD916C
Track not present in AccurateRip database
Copy OK
Track 7
Filename C:\! UPLOAD\Yochk'o Seffer - Magyar Etno (1996) [FLAC] {Pannon Jazz}\07 - Epistrophy.wav
Pre-gap length 0:00:02.00
Peak level 92.9 %
Track quality 100.0 %
Test CRC E14BCD33
Copy CRC E14BCD33
Track not present in AccurateRip database
Copy OK
Track 8
Filename C:\! UPLOAD\Yochk'o Seffer - Magyar Etno (1996) [FLAC] {Pannon Jazz}\08 - Red Throat.wav
Pre-gap length 0:00:01.98
Peak level 80.5 %
Track quality 99.9 %
Test CRC 737EECCB
Copy CRC 737EECCB
Track not present in AccurateRip database
Copy OK
Track 9
Filename C:\! UPLOAD\Yochk'o Seffer - Magyar Etno (1996) [FLAC] {Pannon Jazz}\09 - Keys In C Mood.wav
Pre-gap length 0:00:01.98
Peak level 94.6 %
Track quality 100.0 %
Test CRC B47FCDF4
Copy CRC B47FCDF4
Track not present in AccurateRip database
Copy OK
None of the tracks are present in the AccurateRip database
No errors occurred
End of status report
 
Содержание индексной карты (.CUE)
REM GENRE Ethno-Jazz
REM DATE 1996
REM DISCID 6A0B9609
REM COMMENT "ExactAudioCopy v0.99pb5"
PERFORMER "Yochk'o Seffer"
TITLE "Magyar Etno"
FILE "01 - Vacuum-cleaning.wav" WAVE
TRACK 01 AUDIO
TITLE "Vacuum-cleaning"
PERFORMER "Yochk'o Seffer"
INDEX 01 00:00:00
TRACK 02 AUDIO
TITLE "Deceived Lady"
PERFORMER "Yochk'o Seffer"
INDEX 00 06:38:71
FILE "02 - Deceived Lady.wav" WAVE
INDEX 01 00:00:00
TRACK 03 AUDIO
TITLE "Bulent"
PERFORMER "Yochk'o Seffer"
INDEX 00 05:57:37
FILE "03 - Bulent.wav" WAVE
INDEX 01 00:00:00
TRACK 04 AUDIO
TITLE "Pain bleu"
PERFORMER "Yochk'o Seffer"
INDEX 00 04:04:17
FILE "04 - Pain bleu.wav" WAVE
INDEX 01 00:00:00
TRACK 05 AUDIO
TITLE "Feeling Tipsy"
PERFORMER "Yochk'o Seffer"
INDEX 00 07:34:32
FILE "05 - Feeling Tipsy.wav" WAVE
INDEX 01 00:00:00
TRACK 06 AUDIO
TITLE "Gonna Go Harvestin"
PERFORMER "Yochk'o Seffer"
INDEX 00 06:20:23
FILE "06 - Gonna Go Harvestin.wav" WAVE
INDEX 01 00:00:00
TRACK 07 AUDIO
TITLE "Epistrophy"
PERFORMER "Yochk'o Seffer"
INDEX 00 04:41:50
FILE "07 - Epistrophy.wav" WAVE
INDEX 01 00:00:00
TRACK 08 AUDIO
TITLE "Red Throat"
PERFORMER "Yochk'o Seffer"
INDEX 00 05:20:44
FILE "08 - Red Throat.wav" WAVE
INDEX 01 00:00:00
TRACK 09 AUDIO
TITLE "Keys In C Mood"
PERFORMER "Yochk'o Seffer"
Доп. информация:
Recorded at the HSB Studio, Dunakeszi, Hungary 25, 26 & 27 January 1996
 
Об Seffer: BIO
Né en Hongrie en 1939 et réfugié en France en 1956, Yochk’o Seffer a participé à tout un pan de la musique française des quarante dernières années. Fondateur de groupes comme Perception, Zao ou Yog, il a également été membre de Magma en 1971 et 1972. Persuadé que la recherche permanente d’innovation est nécessaire à l’évolution du langage musical, mais qu’elle n’a de sens que si elle s’inscrit dans un cheminement personnel, il a multiplié les expériences, les formations et les enregistrements. Interrogé sur ses influences, il a coûtume de dire : "Mon grand-père est Béla Bartók et mon père est John Coltrane".
 
Об альбоме (сборнике)
Yochk’o SEFFER - Biography
French sax player and composer born in Miskolc, Hungary on 10.7.1939, Seffer starts studying music at the age of 6. He moves to France in 1956 where he studies reeds, piano and composition at the Conservatoire de Paris, mainly with Nadia Boulanger but also as an occasional student with Olivier Messiaen. In 1959, at the Bohème, he performs with Mal Waldron, the first one in an endless list of partners (amongst others, Charlie Rouse, Phil Woods, Steve Lacy, Ornette Coleman, Pharoah Sanders, Dave Liebman, Kenny Barron, Joachim Kühn, Daniel Humair, Henri Texier)…
In 1969 he creates Perception together with Siefried Kessler, Didier Levallet and drummer Jean-My Truong. The following year, he appears in Magma's line up. In 1973, he associates with pianist François "Faton" Cahen to create ZAO. In 1976, he initiates Neffesh Music, a musical ensemble including jazz improvisers and solists from Pierre Boulez' Ensemble Intercontemporain. Between 1983 and 1985, Jean-François Jenny-Clark, Kessler, Michel Godard and drummer Peter Gritz will be part of Chromophonie, a big band that will be followed by a saxophone septet (1986). In 1988, he adopts a quartet formula (with Kessler, François Méchali and Gritz) that plays Monk's compositions; that first tribute will be followed by another tribute, to Coltrane this time and with eighteen musicians. He is also a painter and a sculptor and the father of cellist Debora Seffer.
Coloured spots, smelting masses, nuances and violent patchworks, he plays music as he paints and sculpts, putting together the dancing lyrism of his compatriot and fellow musician Bartók, the coltranian fire and the sense of evidence of Monk, connecting all these various elements as a multi-instrumentist virtuoso(from soprano to bass saxophone) led by an inexhaustible passion. X.M. (extract of "Dictionnaire du jazz", collection bouquins, Robert Laffont)
 
Состав
Yochk'o Seffer - alto -, tenor -, sopranino & bass sax, Korg piano, bass clarinet
21:57
327
Нет комментариев. Ваш будет первым!