Поиск

(Contemporary Jazz, Ethnic-Jazz) Grencso Suprise Collective - Dream Car Adventure Music - 2003, FLAC (tracks+.cue) lossless

Треклист:
Grencso Suprise Collective - Dream Car Adventure Music
Жанр: Contemporary Jazz, Ethno-Jazz
Страна-производитель диска: Hungary
Год издания диска: 2003
Издатель (лейбл): KVB (Econo Visual Brigade)
Номер по каталогу: 006
Аудио кодек: FLAC (*.flac)
Тип рипа: tracks+.cue
Битрейт аудио: lossless
Продолжительность: 49:51
Источник (релизер): собственный рип с оригинального диска.
Наличие сканов в содержимом раздачи: да
Треклист:
01. Dream Song
02. The Song of Suprise
03. Race Car
04. Here We Rush Along
05. Space Dream
06. Oh, What Can I See?
07. Banana Song
08. Marabou
09. Jungle Words
10. Yet a Hungry, Wild Lion
11. Bye-bye-bye
12. Ad
13. Why Haven't You Waited?
14. Game is Over
15. Ad
16. Hocus - Bonus track
 
Лог создания рипа
Exact Audio Copy V0.99 prebeta 5 from 4. May 2009
EAC extraction logfile from 9. April 2011, 18:21
Grencso Surprise Collective / Dream Car - Adventure Music
Used drive : TSSTcorpCDDVDW SH-S222A Adapter: 1 ID: 0
Read mode : Secure
Utilize accurate stream : Yes
Defeat audio cache : Yes
Make use of C2 pointers : No
Read offset correction : 6
Overread into Lead-In and Lead-Out : No
Fill up missing offset samples with silence : Yes
Delete leading and trailing silent blocks : No
Null samples used in CRC calculations : Yes
Used interface : Installed external ASPI interface
Gap handling : Appended to previous track
Used output format : User Defined Encoder
Selected bitrate : 768 kBit/s
Quality : High
Add ID3 tag : No
Command line compressor : C:\Tool\Compress\FLAC\flac.exe
Additional command line options : -8 -V -T "ARTIST=%a" -T "TITLE=%t" -T "ALBUM=%g" -T "DATE=%y" -T "TRACKNUMBER=%n" -T "TOTALTRACKS=%x" -T "GENRE=%m" -T "ALBUM ARTIST=%v" -T "COMMENT=EAC V0.99 prebeta 5, Secure Mode, Test & Copy, AccurateRip, FLAC -8" %s
TOC of the extracted CD
Track | Start | Length | Start sector | End sector
---------------------------------------------------------
1 | 0:00.00 | 0:20.61 | 0 | 1560
2 | 0:20.61 | 5:55.54 | 1561 | 28239
3 | 6:16.40 | 0:54.00 | 28240 | 32289
4 | 7:10.40 | 0:56.06 | 32290 | 36495
5 | 8:06.46 | 3:30.29 | 36496 | 52274
6 | 11:37.00 | 3:28.07 | 52275 | 67881
7 | 15:05.07 | 0:22.28 | 67882 | 69559
8 | 15:27.35 | 3:21.62 | 69560 | 84696
9 | 18:49.22 | 2:24.71 | 84697 | 95567
10 | 21:14.18 | 3:51.13 | 95568 | 112905
11 | 25:05.31 | 0:18.55 | 112906 | 114310
12 | 25:24.11 | 2:59.01 | 114311 | 127736
13 | 28:23.12 | 0:26.57 | 127737 | 129743
14 | 28:49.69 | 5:43.22 | 129744 | 155490
15 | 34:33.16 | 8:36.57 | 155491 | 194247
16 | 43:09.73 | 6:48.03 | 194248 | 224850
Track 1
Filename C:\! UPLOAD\Grencso Suprise Collective - Dream Car (2003) [FLAC] {KVB}\01 - Dream Song.wav
Pre-gap length 0:00:02.00
Peak level 85.9 %
Track quality 100.0 %
Test CRC E54C830F
Copy CRC E54C830F
Track not present in AccurateRip database
Copy OK
Track 2
Filename C:\! UPLOAD\Grencso Suprise Collective - Dream Car (2003) [FLAC] {KVB}\02 - The Song of Surprise.wav
Peak level 100.0 %
Track quality 100.0 %
Test CRC 1C0880D0
Copy CRC 1C0880D0
Track not present in AccurateRip database
Copy OK
Track 3
Filename C:\! UPLOAD\Grencso Suprise Collective - Dream Car (2003) [FLAC] {KVB}\03 - Race Car.wav
Peak level 100.0 %
Track quality 100.0 %
Test CRC 1B4BADE4
Copy CRC 1B4BADE4
Track not present in AccurateRip database
Copy OK
Track 4
Filename C:\! UPLOAD\Grencso Suprise Collective - Dream Car (2003) [FLAC] {KVB}\04 - Here We Rush Along.wav
Peak level 100.0 %
Track quality 100.0 %
Test CRC 168D5ADC
Copy CRC 168D5ADC
Track not present in AccurateRip database
Copy OK
Track 5
Filename C:\! UPLOAD\Grencso Suprise Collective - Dream Car (2003) [FLAC] {KVB}\05 - Space Dream.wav
Peak level 100.0 %
Track quality 100.0 %
Test CRC 7EB1D543
Copy CRC 7EB1D543
Track not present in AccurateRip database
Copy OK
Track 6
Filename C:\! UPLOAD\Grencso Suprise Collective - Dream Car (2003) [FLAC] {KVB}\06 - Oh, What Can I See .wav
Peak level 81.0 %
Track quality 100.0 %
Test CRC 2C4383C6
Copy CRC 2C4383C6
Track not present in AccurateRip database
Copy OK
Track 7
Filename C:\! UPLOAD\Grencso Suprise Collective - Dream Car (2003) [FLAC] {KVB}\07 - Banana Song.wav
Peak level 59.2 %
Track quality 100.0 %
Test CRC 4A02B8DD
Copy CRC 4A02B8DD
Track not present in AccurateRip database
Copy OK
Track 8
Filename C:\! UPLOAD\Grencso Suprise Collective - Dream Car (2003) [FLAC] {KVB}\08 - Marabou.wav
Peak level 100.0 %
Track quality 100.0 %
Test CRC D5E9EB41
Copy CRC D5E9EB41
Track not present in AccurateRip database
Copy OK
Track 9
Filename C:\! UPLOAD\Grencso Suprise Collective - Dream Car (2003) [FLAC] {KVB}\09 - Jungle.wav
Peak level 100.0 %
Track quality 100.0 %
Test CRC EF7FCF27
Copy CRC EF7FCF27
Track not present in AccurateRip database
Copy OK
Track 10
Filename C:\! UPLOAD\Grencso Suprise Collective - Dream Car (2003) [FLAC] {KVB}\10 - Yet a Hungry, Wild Lion.wav
Peak level 99.9 %
Track quality 100.0 %
Test CRC 6C93C237
Copy CRC 6C93C237
Track not present in AccurateRip database
Copy OK
Track 11
Filename C:\! UPLOAD\Grencso Suprise Collective - Dream Car (2003) [FLAC] {KVB}\11 - Bye-bye-bye.wav
Peak level 84.7 %
Track quality 100.0 %
Test CRC 1D4598A7
Copy CRC 1D4598A7
Track not present in AccurateRip database
Copy OK
Track 12
Filename C:\! UPLOAD\Grencso Suprise Collective - Dream Car (2003) [FLAC] {KVB}\12 - Ad.wav
Peak level 100.0 %
Track quality 100.0 %
Test CRC D968A8C3
Copy CRC D968A8C3
Track not present in AccurateRip database
Copy OK
Track 13
Filename C:\! UPLOAD\Grencso Suprise Collective - Dream Car (2003) [FLAC] {KVB}\13 - Why Haven't You Waited .wav
Peak level 80.4 %
Track quality 100.0 %
Test CRC 93D49A6B
Copy CRC 93D49A6B
Track not present in AccurateRip database
Copy OK
Track 14
Filename C:\! UPLOAD\Grencso Suprise Collective - Dream Car (2003) [FLAC] {KVB}\14 - Game is Over.wav
Peak level 100.0 %
Track quality 100.0 %
Test CRC 3C0BBFE0
Copy CRC 3C0BBFE0
Track not present in AccurateRip database
Copy OK
Track 15
Filename C:\! UPLOAD\Grencso Suprise Collective - Dream Car (2003) [FLAC] {KVB}\15 - Ad.wav
Peak level 100.0 %
Track quality 100.0 %
Test CRC 99802871
Copy CRC 99802871
Track not present in AccurateRip database
Copy OK
Track 16
Filename C:\! UPLOAD\Grencso Suprise Collective - Dream Car (2003) [FLAC] {KVB}\16 - Hocus - Bonus track.wav
Peak level 84.3 %
Track quality 100.0 %
Test CRC AAC91E5F
Copy CRC AAC91E5F
Track not present in AccurateRip database
Copy OK
None of the tracks are present in the AccurateRip database
No errors occurred
End of status report
 
Содержание индексной карты (.CUE)
REM GENRE "Experimental - Ethno - Jazz"
REM DATE 2003
REM DISCID DA0BB610
REM COMMENT "ExactAudioCopy v0.99pb5"
PERFORMER "Grencso Surprise Collective"
TITLE "Dream Car - Adventure Music"
FILE "01 - Dream Song.wav" WAVE
TRACK 01 AUDIO
TITLE "Dream Song"
PERFORMER "Grencso Surprise Collective"
INDEX 01 00:00:00
FILE "02 - The Song of Surprise.wav" WAVE
TRACK 02 AUDIO
TITLE "The Song of Surprise"
PERFORMER "Grencso Surprise Collective"
INDEX 01 00:00:00
FILE "03 - Race Car.wav" WAVE
TRACK 03 AUDIO
TITLE "Race Car"
PERFORMER "Grencso Surprise Collective"
INDEX 01 00:00:00
FILE "04 - Here We Rush Along.wav" WAVE
TRACK 04 AUDIO
TITLE "Here We Rush Along"
PERFORMER "Grencso Surprise Collective"
INDEX 01 00:00:00
FILE "05 - Space Dream.wav" WAVE
TRACK 05 AUDIO
TITLE "Space Dream"
PERFORMER "Grencso Surprise Collective"
INDEX 01 00:00:00
FILE "06 - Oh, What Can I See .wav" WAVE
TRACK 06 AUDIO
TITLE "Oh, What Can I See?"
PERFORMER "Grencso Surprise Collective"
INDEX 01 00:00:00
FILE "07 - Banana Song.wav" WAVE
TRACK 07 AUDIO
TITLE "Banana Song"
PERFORMER "Grencso Surprise Collective"
INDEX 01 00:00:00
FILE "08 - Marabou.wav" WAVE
TRACK 08 AUDIO
TITLE "Marabou"
PERFORMER "Grencso Surprise Collective"
INDEX 01 00:00:00
FILE "09 - Jungle.wav" WAVE
TRACK 09 AUDIO
TITLE "Jungle"
PERFORMER "Grencso Surprise Collective"
INDEX 01 00:00:00
FILE "10 - Yet a Hungry, Wild Lion.wav" WAVE
TRACK 10 AUDIO
TITLE "Yet a Hungry, Wild Lion"
PERFORMER "Grencso Surprise Collective"
INDEX 01 00:00:00
FILE "11 - Bye-bye-bye.wav" WAVE
TRACK 11 AUDIO
TITLE "Bye-bye-bye"
PERFORMER "Grencso Surprise Collective"
INDEX 01 00:00:00
FILE "12 - Ad.wav" WAVE
TRACK 12 AUDIO
TITLE "Ad"
PERFORMER "Grencso Surprise Collective"
INDEX 01 00:00:00
FILE "13 - Why Haven't You Waited .wav" WAVE
TRACK 13 AUDIO
TITLE "Why Haven't You Waited?"
PERFORMER "Grencso Surprise Collective"
INDEX 01 00:00:00
FILE "14 - Game is Over.wav" WAVE
TRACK 14 AUDIO
TITLE "Game is Over"
PERFORMER "Grencso Surprise Collective"
INDEX 01 00:00:00
FILE "15 - Ad.wav" WAVE
TRACK 15 AUDIO
TITLE "Ad"
PERFORMER "Grencso Surprise Collective"
INDEX 01 00:00:00
FILE "16 - Hocus - Bonus track.wav" WAVE
TRACK 16 AUDIO
TITLE "Hocus - Bonus track"
PERFORMER "Grencso Surprise Collective"
INDEX 01 00:00:00
Доп. информация:
Recorded 03. 2003 Lupus Sound Studió
 
Состав
Gabi Kenderesi - vocal, violin
Róbert Benkö - double bass
Csaba Hajnóczy - e. guitar, sampler
György Jeszenszky - drums, congas, percussion
István Grencsó - s.a.t. sax, flute
Tibor Szemzö - voice
István Busa - rap, beatbox
21:57
266
Нет комментариев. Ваш будет первым!