Поиск

(Ethnic Jazz / Latin / World) [CD] Caetano Veloso - Circulado {Elektra Nonesuch 79277-2} - 1991, APE (image+.cue), lossless

(Ethnic Jazz / Latin / World) [CD] Caetano Veloso - Circulado {Elektra Nonesuch 79277-2} - 1991, APE (image+.cue), lossless
Caetano Veloso / Circuladô
Жанр: Ethnic Jazz / Latin / World
Носитель: CD
Год издания: 1991
Издатель (лейбл): Elektra Nonesuch
Номер по каталогу: 79277-2
Аудиокодек: APE (*.ape)
Тип рипа: image+.cue
Битрейт аудио: lossless
Продолжительность: 00:40:02
Источник (релизер): yupi_66
Наличие сканов в содержимом раздачи: да
Треклист:
01. Fora da Ordem
02. Circuladô de Fulô
03. Itapuã
04. Boas Vindas
05. Ela Ela
06. Santa Clara, Padroeira da Televisao
07. Baiao da Penha
08. Neide Candolina
09. Terceira Margem Do Rio
10. O Cu Do Mundo
11. Lindeza
Personnel
 
Лог создания рипа (EAC Log)
Exact Audio Copy V0.99 prebeta 5 from 4. May 2009
Отчёт EAC об извлечении, выполненном 21. августа 2009, 15:30
Caetano Veloso / Circuladф
Дисковод: HL-DT-STDVDRAM GH20NS10 Adapter: 1 ID: 0
Режим чтения : Достоверность
Использование точного потока : Да
Отключение кэша аудио : Да
Использование указателей C2 : Нет
Коррекция смещения при чтении : 667
Способность читать области Lead-in и Lead-out : Нет
Заполнение пропущенных сэмплов тишиной : Да
Удаление блоков с тишиной в начале и конце : Нет
При вычислениях CRC использовались нулевые сэмплы : Да
Интерфейс : Установленный внешний ASPI-интерфейс
Выходной формат : Внутренние WAV-операции
Формат сэмплов : 44.100 Гц; 16 бит; стерео
TOC извлечённого CD
Трек | Старт | Длительность | Начальный сектор | Конечный сектор
---------------------------------------------------------------------
1 | 0:00.32 | 5:53.58 | 32 | 26564
2 | 5:54.15 | 3:29.17 | 26565 | 42256
3 | 9:23.32 | 3:37.10 | 42257 | 58541
4 | 13:00.42 | 3:41.60 | 58542 | 75176
5 | 16:42.27 | 2:03.30 | 75177 | 84431
6 | 18:45.57 | 3:08.18 | 84432 | 98549
7 | 21:54.00 | 3:25.67 | 98550 | 113991
8 | 25:19.67 | 4:11.25 | 113992 | 132841
9 | 29:31.17 | 2:23.18 | 132842 | 143584
10 | 31:54.35 | 4:00.12 | 143585 | 161596
11 | 35:54.47 | 4:08.10 | 161597 | 180206
Характеристики диапазона извлечения и сообщения об ошибках
Выбранный диапазон
Имя файла E:\Музыка\Записи\Новая папка\Caetano Veloso - Circulado.wav
Пиковый уровень 97.3 %
Качество диапазона 100.0 %
CRC копии 24F234B3
Копирование... OK
Ошибок не произошло
Конец отчёта
 
Содержание индексной карты (.CUE)
REM GENRE Latin Jazz
REM DATE 1991
PERFORMER "Caetano Veloso"
TITLE "Circulado"
FILE "Caetano Veloso - Circulado.ape" WAVE
TRACK 01 AUDIO
TITLE "Fora da ordem"
INDEX 00 00:00:00
INDEX 01 00:00:32
TRACK 02 AUDIO
TITLE "Circulado de fulo"
INDEX 01 05:54:15
TRACK 03 AUDIO
TITLE "Itapua"
INDEX 01 09:23:32
TRACK 04 AUDIO
TITLE "Boas vindas"
INDEX 01 13:00:42
TRACK 05 AUDIO
TITLE "Ela ela"
INDEX 01 16:42:27
TRACK 06 AUDIO
TITLE "Santa Clara, padroeira da televisao"
INDEX 01 18:45:57
TRACK 07 AUDIO
TITLE "Baico da Penha"
INDEX 00 21:52:43
INDEX 01 21:54:00
TRACK 08 AUDIO
TITLE "Neide Candolina"
INDEX 00 25:19:52
INDEX 01 25:19:67
TRACK 09 AUDIO
TITLE "A terceira margem do rio"
INDEX 00 29:30:30
INDEX 01 29:31:17
TRACK 10 AUDIO
TITLE "O cu do mundo"
INDEX 01 31:54:35
TRACK 11 AUDIO
TITLE "Lindeza"
INDEX 00 35:54:05
INDEX 01 35:54:47
16:54
280
Нет комментариев. Ваш будет первым!