Поиск

(Ethnic Jazz) Ilan Salem - Wild - 2011, FLAC (tracks+.cue), lossless

(Ethnic Jazz) Ilan Salem - Wild - 2011, FLAC (tracks+.cue), lossless
Треклист:
Ilan Salem / Wild
Жанр: Ethnic Jazz
Страна-производитель диска: UK
Год издания диска: 2011
Издатель (лейбл): RazDaz Records
Номер по каталогу: RD4611
Страна: Israel
Аудиокодек: FLAC (*.flac)
Тип рипа: tracks+.cue
Битрейт аудио: lossless
Продолжительность: 51:14
Источник (релизер): Мой рип
Наличие сканов в содержимом раздачи: да
Треклист:
1. Wild East (4:58)
2. Ballad of a Stream and the Sea (6:18)
3. Bad Boy (4:39)
4. Zameru (3:44)
5. Neula (6:03)
6. Blessing (4:31)
7. Le Troubadour (3:29)
8. Going Wild (3:53)
9. Song for Anna (4:25)
10. Anna Boei (3:36)
11. Ann's Tune (5:38)
 
Лог создания рипа
Exact Audio Copy V1.0 beta 3 from 29. August 2011
EAC extraction logfile from 11. January 2012, 18:12
Ilan Salem / Wild
Used drive : TSSTcorpCD/DVDW SH-S182D Adapter: 0 ID: 0
Read mode : Secure
Utilize accurate stream : Yes
Defeat audio cache : Yes
Make use of C2 pointers : No
Read offset correction : 6
Overread into Lead-In and Lead-Out : No
Fill up missing offset samples with silence : Yes
Delete leading and trailing silent blocks : No
Null samples used in CRC calculations : Yes
Used interface : Native Win32 interface for Win NT & 2000
Gap handling : Appended to previous track
Used output format : User Defined Encoder
Selected bitrate : 1024 kBit/s
Quality : High
Add ID3 tag : No
Command line compressor : C:\Program Files\Exact Audio Copy\Flac\flac.exe
Additional command line options : -8 -V -T "ARTIST=%artist%" -T "TITLE=%title%" -T "ALBUM=%albumtitle%" -T "DATE=%year%" -T "TRACKNUMBER=%tracknr%" -T "GENRE=%genre%" -T "PERFORMER=%albuminterpret%" -T "COMPOSER=%composer%" %haslyrics%--tag-from-file=LYRICS="%lyricsfile%"%haslyrics% -T "ALBUMARTIST=%albumartist%" -T "ALBUM ARTIST=%albumartist%" -T "DISCNUMBER=%cdnumber%" -T "TOTALDISCS=%totalcds%" -T "TOTALTRACKS=%numtracks%" -T "COMMENT=%comment%" %source% -o %dest%
TOC of the extracted CD
Track | Start | Length | Start sector | End sector
---------------------------------------------------------
1 | 0:00.00 | 4:58.23 | 0 | 22372
2 | 4:58.23 | 6:18.06 | 22373 | 50728
3 | 11:16.29 | 4:39.45 | 50729 | 71698
4 | 15:55.74 | 3:44.53 | 71699 | 88551
5 | 19:40.52 | 6:03.09 | 88552 | 115785
6 | 25:43.61 | 4:31.54 | 115786 | 136164
7 | 30:15.40 | 3:29.07 | 136165 | 151846
8 | 33:44.47 | 3:53.43 | 151847 | 169364
9 | 37:38.15 | 4:25.26 | 169365 | 189265
10 | 42:03.41 | 3:36.27 | 189266 | 205492
11 | 45:39.68 | 5:38.71 | 205493 | 230913
Track 1
Filename D:\www.vasiliska.com\01 Wild East.wav
Pre-gap length 0:00:02.00
Peak level 100.0 %
Extraction speed 4.4 X
Track quality 100.0 %
Test CRC 3BD698E4
Copy CRC 3BD698E4
Track not present in AccurateRip database
Copy OK
Track 2
Filename D:\www.vasiliska.com\02 Ballad of a Stream and the Sea.wav
Peak level 100.0 %
Extraction speed 5.2 X
Track quality 100.0 %
Test CRC AC3EE333
Copy CRC AC3EE333
Track not present in AccurateRip database
Copy OK
Track 3
Filename D:\www.vasiliska.com\03 Bad Boy.wav
Peak level 100.0 %
Extraction speed 5.5 X
Track quality 100.0 %
Test CRC 1E368F87
Copy CRC 1E368F87
Track not present in AccurateRip database
Copy OK
Track 4
Filename D:\www.vasiliska.com\04 Zameru.wav
Peak level 100.0 %
Extraction speed 5.8 X
Track quality 100.0 %
Test CRC F11C430D
Copy CRC F11C430D
Track not present in AccurateRip database
Copy OK
Track 5
Filename D:\www.vasiliska.com\05 Neula.wav
Peak level 97.7 %
Extraction speed 6.5 X
Track quality 100.0 %
Test CRC 4B46B58B
Copy CRC 4B46B58B
Track not present in AccurateRip database
Copy OK
Track 6
Filename D:\www.vasiliska.com\06 Blessing.wav
Peak level 100.0 %
Extraction speed 6.7 X
Track quality 100.0 %
Test CRC 4C12DFEA
Copy CRC 4C12DFEA
Track not present in AccurateRip database
Copy OK
Track 7
Filename D:\www.vasiliska.com\07 Le Troubadour.wav
Peak level 82.0 %
Extraction speed 6.7 X
Track quality 100.0 %
Test CRC 7DAD0346
Copy CRC 7DAD0346
Track not present in AccurateRip database
Copy OK
Track 8
Filename D:\www.vasiliska.com\08 Going Wild.wav
Peak level 97.8 %
Extraction speed 7.0 X
Track quality 100.0 %
Test CRC 770918B0
Copy CRC 770918B0
Track not present in AccurateRip database
Copy OK
Track 9
Filename D:\www.vasiliska.com\09 Song for Anna.wav
Peak level 100.0 %
Extraction speed 7.4 X
Track quality 100.0 %
Test CRC 6DF1766A
Copy CRC 6DF1766A
Track not present in AccurateRip database
Copy OK
Track 10
Filename D:\www.vasiliska.com\10 Anna Boei.wav
Peak level 99.7 %
Extraction speed 7.4 X
Track quality 100.0 %
Test CRC 2AA44E3B
Copy CRC 2AA44E3B
Track not present in AccurateRip database
Copy OK
Track 11
Filename D:\www.vasiliska.com\11 Ann's Tune.wav
Peak level 99.2 %
Extraction speed 8.1 X
Track quality 100.0 %
Test CRC 1CBCF468
Copy CRC 1CBCF468
Track not present in AccurateRip database
Copy OK
None of the tracks are present in the AccurateRip database
No errors occurred
End of status report
---- CUETools DB Plugin V2.1.3
[CTDB TOCID: yia7U.LFqAOXyAzhunCWhocZuTA-] disk not present in database, Submit result: yia7U.LFqAOXyAzhunCWhocZuTA- has been uploaded
==== Log checksum 80DDF58254462226EDD9C5E8DF6598F4F41D4B8F2E39EA635285426E475172CE ====
 
Содержание индексной карты (.CUE)
REM GENRE Jazz
REM DATE 2011
REM DISCID 8B0C060B
REM COMMENT "ExactAudioCopy v1.0b3"
PERFORMER "Ilan Salem"
TITLE "Wild"
FILE "01 Wild East.wav" WAVE
TRACK 01 AUDIO
TITLE "Wild East"
PERFORMER "Ilan Salem"
ISRC H1jW41161101
INDEX 01 00:00:00
FILE "02 Ballad of a Stream and the Sea.wav" WAVE
TRACK 02 AUDIO
TITLE "Ballad of a Stream and the Sea"
PERFORMER "Ilan Salem"
ISRC H1jW41161102
INDEX 01 00:00:00
FILE "03 Bad Boy.wav" WAVE
TRACK 03 AUDIO
TITLE "Bad Boy"
PERFORMER "Ilan Salem"
ISRC H1jW41161103
INDEX 01 00:00:00
FILE "04 Zameru.wav" WAVE
TRACK 04 AUDIO
TITLE "Zameru"
PERFORMER "Ilan Salem"
ISRC H1jW41161104
INDEX 01 00:00:00
FILE "05 Neula.wav" WAVE
TRACK 05 AUDIO
TITLE "Neula"
PERFORMER "Ilan Salem"
ISRC H1jW41161105
INDEX 01 00:00:00
FILE "06 Blessing.wav" WAVE
TRACK 06 AUDIO
TITLE "Blessing"
PERFORMER "Ilan Salem"
ISRC H1jW41161106
INDEX 01 00:00:00
FILE "07 Le Troubadour.wav" WAVE
TRACK 07 AUDIO
TITLE "Le Troubadour"
PERFORMER "Ilan Salem"
ISRC H1jW41161107
INDEX 01 00:00:00
FILE "08 Going Wild.wav" WAVE
TRACK 08 AUDIO
TITLE "Going Wild"
PERFORMER "Ilan Salem"
ISRC H1jW41161108
INDEX 01 00:00:00
FILE "09 Song for Anna.wav" WAVE
TRACK 09 AUDIO
TITLE "Song for Anna"
PERFORMER "Ilan Salem"
ISRC H1jW41161109
INDEX 01 00:00:00
FILE "10 Anna Boei.wav" WAVE
TRACK 10 AUDIO
TITLE "Anna Boei"
PERFORMER "Ilan Salem"
ISRC H1jW41161110
INDEX 01 00:00:00
FILE "11 Ann's Tune.wav" WAVE
TRACK 11 AUDIO
TITLE "Ann's Tune"
PERFORMER "Ilan Salem"
ISRC H1jW41161111
INDEX 01 00:00:00
 
Об альбоме (сборнике)
All music composed and arranged by ILAN SALEM except
'LE TROUBADOUR' by AMOS HOFFMAN
and 'ANN'S TUNE' by AVISHAI COHEN
'ANNA BOEI' lyrics by YAEL SALEM, arranged by AVISHAI COHEN
AVISHAI COHEN appears courtesy of EMI/Blue Note
 
Состав
ILAN SALEM Flute & Alto Flute
AMOS HOFFMAN Guitar & Oud
NITAY HERSHKOVITS Piano
GILAD ABRO Contrabass
AMIR BRESLER Drums
ILAN KATCHKA Percussion on track 6 & 9
AVISHAI COHEN Contrabass on tracks 10 & 11, piano and vocals on track 10
ITAMAR DOARI Bandir & Tambourine on track 10
SHAI MAESTRO Fender Rhodes on tracks 10 & 11
00:51
332
Нет комментариев. Ваш будет первым!