Поиск

(Ethnic Fusion, Arabic RnB) Toufic Farroukh - Tootya - 2007, FLAC (tracks+.cue), lossless

(Ethnic Fusion, Arabic RnB) Toufic Farroukh - Tootya - 2007, FLAC (tracks+.cue), lossless
Toufic Farroukh / Tootya
Жанр: Ethnic Fusion, Arabic RnB
Страна-производитель диска: France
Год издания диска: 2007
Издатель (лейбл): O+Music
Номер по каталогу: OP126
Страна: Lebanon
Аудиокодек: FLAC (*.flac)
Тип рипа: tracks+.cue
Битрейт аудио: lossless
Продолжительность: 01:03:02
Источник (релизер): duppyB
Наличие сканов в содержимом раздачи: да
Треклист:
1 Systole, diastole
2 Hanina
3 Radio city
4 Ya Nassim Alrouh
5 Destins et desirs
6 The girl from gypsy moon
7 Elhob ?!
8 Cendres
9 Scarecrow and peacock
10 Ya habibi
11 Long distance call (LDC)
12 Only lonely
Lead vocals Rima Khcheich on "Elbob", "Hanina" & "Ya habibi"
Lead vocals Jeanne Added on "Destins et desirs"
Rap by Moe on "Only lonely"
 
Лог создания рипа
Exact Audio Copy V1.0 beta 2 from 29. April 2011
EAC extraction logfile from 10. January 2012, 10:53
Toufic Farroukh / Tootya
Used drive : Optiarc DVD RW AD-7200S Adapter: 2 ID: 1
Read mode : Secure
Utilize accurate stream : Yes
Defeat audio cache : Yes
Make use of C2 pointers : No
Read offset correction : 48
Overread into Lead-In and Lead-Out : No
Fill up missing offset samples with silence : Yes
Delete leading and trailing silent blocks : No
Null samples used in CRC calculations : Yes
Used interface : Native Win32 interface for Win NT & 2000
Gap handling : Appended to previous track
Used output format : User Defined Encoder
Selected bitrate : 128 kBit/s
Quality : High
Add ID3 tag : No
Command line compressor : C:\Program Files\Exact Audio Copy\Flac\flac.exe
Additional command line options : -V -8 -T "Genre=%genre%" -T "Artist=%artist%" -T "Title=%title%" -T "Album=%albumtitle%" -T "Date=%year%" -T "Tracknumber=%tracknr%" -T "Comment=%comment%" %source%
TOC of the extracted CD
Track | Start | Length | Start sector | End sector
---------------------------------------------------------
1 | 0:00.00 | 5:31.63 | 0 | 24887
2 | 5:31.63 | 4:45.50 | 24888 | 46312
3 | 10:17.38 | 6:24.39 | 46313 | 75151
4 | 16:42.02 | 4:42.34 | 75152 | 96335
5 | 21:24.36 | 5:16.30 | 96336 | 120065
6 | 26:40.66 | 5:41.09 | 120066 | 145649
7 | 32:22.00 | 5:00.58 | 145650 | 168207
8 | 37:22.58 | 4:25.44 | 168208 | 188126
9 | 41:48.27 | 5:02.14 | 188127 | 210790
10 | 46:50.41 | 4:15.73 | 210791 | 229988
11 | 51:06.39 | 5:24.66 | 229989 | 254354
12 | 56:31.30 | 6:28.49 | 254355 | 283503
Track 1
Filename E:\Toufic Farroukh - Tootya (2007)\01. Systole, Diastole.wav
Pre-gap length 0:00:02.00
Peak level 99.5 %
Extraction speed 2.7 X
Track quality 100.0 %
Test CRC A99364EF
Copy CRC A99364EF
Accurately ripped (confidence 3) [ADC09BF6] (AR v1)
Copy OK
Track 2
Filename E:\Toufic Farroukh - Tootya (2007)\02. Hanina - Feat. Rima Khcheich.wav
Peak level 100.0 %
Extraction speed 3.0 X
Track quality 100.0 %
Test CRC 2F376E95
Copy CRC 2F376E95
Accurately ripped (confidence 3) [703322B5] (AR v1)
Copy OK
Track 3
Filename E:\Toufic Farroukh - Tootya (2007)\03. Radio City.wav
Peak level 100.0 %
Extraction speed 3.4 X
Track quality 100.0 %
Test CRC 27775611
Copy CRC 27775611
Accurately ripped (confidence 3) [18DC0AF6] (AR v1)
Copy OK
Track 4
Filename E:\Toufic Farroukh - Tootya (2007)\04. Ya Nassim Alrouh.wav
Peak level 100.0 %
Extraction speed 3.5 X
Track quality 100.0 %
Test CRC 70FE5676
Copy CRC 70FE5676
Accurately ripped (confidence 3) [144527B9] (AR v1)
Copy OK
Track 5
Filename E:\Toufic Farroukh - Tootya (2007)\05. Destins Et Desirs - Feat. Jeanne Added.wav
Peak level 100.0 %
Extraction speed 3.4 X
Track quality 99.9 %
Test CRC 7BB047F9
Copy CRC 7BB047F9
Accurately ripped (confidence 3) [3654603B] (AR v1)
Copy OK
Track 6
Filename E:\Toufic Farroukh - Tootya (2007)\06. The Girl From Gypsy Moon.wav
Peak level 100.0 %
Extraction speed 4.1 X
Track quality 100.0 %
Test CRC 65833816
Copy CRC 65833816
Accurately ripped (confidence 3) [29382BCD] (AR v1)
Copy OK
Track 7
Filename E:\Toufic Farroukh - Tootya (2007)\07. Elhob! - Feat. Rima Khcheich.wav
Peak level 100.0 %
Extraction speed 3.8 X
Track quality 99.9 %
Test CRC C53DA9D4
Copy CRC C53DA9D4
Accurately ripped (confidence 3) [223FEA20] (AR v1)
Copy OK
Track 8
Filename E:\Toufic Farroukh - Tootya (2007)\08. Cendres.wav
Peak level 100.0 %
Extraction speed 3.9 X
Track quality 99.9 %
Test CRC B987D7DA
Copy CRC B987D7DA
Accurately ripped (confidence 3) [5AB56D77] (AR v1)
Copy OK
Track 9
Filename E:\Toufic Farroukh - Tootya (2007)\09. Scarecrow And Peacock.wav
Peak level 100.0 %
Extraction speed 4.6 X
Track quality 100.0 %
Test CRC 3D32615D
Copy CRC 3D32615D
Accurately ripped (confidence 3) [73046041] (AR v1)
Copy OK
Track 10
Filename E:\Toufic Farroukh - Tootya (2007)\10. Ya Habibi - Feat. Rima Khcheich.wav
Peak level 100.0 %
Extraction speed 4.1 X
Track quality 99.9 %
Test CRC 305D39DA
Copy CRC 305D39DA
Accurately ripped (confidence 3) [45A4F963] (AR v1)
Copy OK
Track 11
Filename E:\Toufic Farroukh - Tootya (2007)\11. Long Distance Call (LDC).wav
Peak level 99.6 %
Extraction speed 5.0 X
Track quality 100.0 %
Test CRC 2618D158
Copy CRC 2618D158
Accurately ripped (confidence 3) [D4575738] (AR v1)
Copy OK
Track 12
Filename E:\Toufic Farroukh - Tootya (2007)\12. Only Lonely - Feat. Moe.wav
Peak level 100.0 %
Extraction speed 5.3 X
Track quality 100.0 %
Test CRC 67638BBF
Copy CRC 67638BBF
Accurately ripped (confidence 3) [11973AF5] (AR v1)
Copy OK
All tracks accurately ripped
No errors occurred
End of status report
==== Log checksum FFA6471A6BE2708C589D6FDB8027E8197D2B9151EEBFB4A3BF5A4449068E9245 ====
 
Содержание индексной карты (.CUE)
REM GENRE Fusion
REM DATE 2007
REM DISCID 900EC40C
REM COMMENT "ExactAudioCopy v1.0b2"
CATALOG 0934500700000
PERFORMER "Toufic Farroukh"
TITLE "Tootya"
FILE "01. Systole, Diastole.wav" WAVE
TRACK 01 AUDIO
TITLE "Systole, Diastole "
PERFORMER "Toufic Farroukh"
ISRC PISTE0080000
FLAGS DCP
INDEX 01 00:00:00
FILE "02. Hanina - Feat. Rima Khcheich.wav" WAVE
TRACK 02 AUDIO
TITLE "Hanina - Feat. Rima Khcheich "
PERFORMER "Toufic Farroukh"
ISRC PISTE0090000
FLAGS DCP
INDEX 01 00:00:00
FILE "03. Radio City.wav" WAVE
TRACK 03 AUDIO
TITLE "Radio City "
PERFORMER "Toufic Farroukh"
ISRC PISTE0100000
FLAGS DCP
INDEX 01 00:00:00
FILE "04. Ya Nassim Alrouh.wav" WAVE
TRACK 04 AUDIO
TITLE "Ya Nassim Alrouh"
PERFORMER "Toufic Farroukh"
ISRC PISTE0110000
FLAGS DCP
INDEX 01 00:00:00
FILE "05. Destins Et Desirs - Feat. Jeanne Added.wav" WAVE
TRACK 05 AUDIO
TITLE "Destins Et Desirs - Feat. Jeanne Added"
PERFORMER "Toufic Farroukh"
ISRC PISTE0120000
FLAGS DCP
INDEX 01 00:00:00
FILE "06. The Girl From Gypsy Moon.wav" WAVE
TRACK 06 AUDIO
TITLE "The Girl From Gypsy Moon "
PERFORMER "Toufic Farroukh"
FLAGS DCP
INDEX 01 00:00:00
FILE "07. Elhob! - Feat. Rima Khcheich.wav" WAVE
TRACK 07 AUDIO
TITLE "Elhob?! - Feat. Rima Khcheich "
PERFORMER "Toufic Farroukh"
FLAGS DCP
INDEX 01 00:00:00
FILE "08. Cendres.wav" WAVE
TRACK 08 AUDIO
TITLE "Cendres "
PERFORMER "Toufic Farroukh"
FLAGS DCP
INDEX 01 00:00:00
FILE "09. Scarecrow And Peacock.wav" WAVE
TRACK 09 AUDIO
TITLE "Scarecrow And Peacock "
PERFORMER "Toufic Farroukh"
FLAGS DCP
INDEX 01 00:00:00
FILE "10. Ya Habibi - Feat. Rima Khcheich.wav" WAVE
TRACK 10 AUDIO
TITLE "Ya Habibi - Feat. Rima Khcheich "
PERFORMER "Toufic Farroukh"
FLAGS DCP
INDEX 01 00:00:00
FILE "11. Long Distance Call (LDC).wav" WAVE
TRACK 11 AUDIO
TITLE "Long Distance Call (LDC) "
PERFORMER "Toufic Farroukh"
FLAGS DCP
INDEX 01 00:00:00
FILE "12. Only Lonely - Feat. Moe.wav" WAVE
TRACK 12 AUDIO
TITLE "Only Lonely - Feat. Moe"
PERFORMER "Toufic Farroukh"
FLAGS DCP
INDEX 01 00:00:00
 
Об альбоме (сборнике)
You don't find a lot of Arab jazz-funk knocking around, which means that Toufic Farroukh is pretty much standing in a class of one. His particular style, mixing up Arab strings and melodies with jazz instrumentalists and some low-key dance beats, is successful enough, as far as it goes. But in trying to mix so much, he almost inevitably loses the spiciest part of each flavor. It starts of hopefully enough with "Systole, Diastole," but quickly loses ground until "Destins Et Desirs" seems a mere exercise in Arab-inflected R&B. "The Girl from the Gypsy Moon" has some excellent soloing from both guitar and accordion, but no passion, and there's equally little heart to the rap on "Only Lonely." There's a good idea behind this, but for the moment Farroukh is too content to steer a middle course and settle for compromise, which makes for something full of technical skill, but without the fire and passion that sets an album apart. by Chris Nickson
AAJ Review
 
Состав
BEIRUT SESSIONS
Accordion Tony Deeb
Ney Samir Siblini
Oud Charbel Rouhana
Kanoun Gilbert Yammine
Violins Michel Khairallah, Antoine Khalife, Anis Hawi, Mouna Semaan, Claud Chalhoub, Richard Salfiti
Cello Angella Hounaian, Nassib Ahmadie
Choir Nader Khoury, Gilbert Jalkh
PARIS SESSIONS
Acoustic & El. bass, Violin solo & Viola Jean Wellers
Acoustic piano & F. Rhodes Leandro Aconcha
Flute Magic Malik
Ney solo & Bass flute Joshua Levitt
Trombone Geoffroy De Masure
Trumpet Ibrahim Maalouf
El. & Ac. Guitar Bruno Caviglia
Tuba Laurent Gehant
Impro. guitar on The girl from gypsy moon Christophe Lartilleux
Impro. Accordion on Cendres David Venitucci
Impro. Accordion on The girl from gypsy moon Emy Dragoi
Saxes, Bouzouk & Percussion Toufic Farroukh
01:50
302
Нет комментариев. Ваш будет первым!