Поиск

(Ethnic Jazz, Harp, Colombian, World, Neo Classical) [CD] Edmar Castaneda (ft Gonzalo Rubalcaba, Miguel Zenon, Hamilton de Holanda) - Double Portion - 2012, FLAC (tracks+.cue), lossless

(Ethnic Jazz, Harp, Colombian, World, Neo Classical) [CD] Edmar Castaneda (ft Gonzalo Rubalcaba, Miguel Zenon, Hamilton de Holanda) - Double Portion - 2012, FLAC (tracks+.cue), lossless
Edmar Castañeda / Double PortionЯ считаю, что игра на арфе – дар Божий... Я поклоняюсь Богу своей музыкой.
Эдмар Кастанеда Жанр: Ethnic Jazz, Harp, Colombian, World, Neo Classical
Носитель: CD
Страна-производитель диска (релиза): USA
Год издания: 2012
Издатель (лейбл): Arpa Y Voz Productions
Страна исполнителя (группы): Colombia
Аудиокодек: FLAC (*.flac)
Тип рипа: tracks+.cue
Битрейт аудио: lossless
Продолжительность: 01:02:20
Источник (релизер): вата (благодарности - svelton)
Наличие сканов в содержимом раздачи: да
Треклист:
01 Double Portion
02 Zeudi
03 A Harp in New York
04 Poem of Strings
05 Libertango
06 Ocaso De Mar
07 Quitapesares
08 Portrait D'un Jardin
09 A La Tierra
10 Samba for Orvieto
Другие релизы Эдмара Кастанеды:
Edmar Castaneda (ft Marshall Gilkes, Dave Silliman, John Scofield, Joe Locke, Samuel Torres, Andrea Tierra) - Entre Cuerdas (2009) [FLAC]
Edmar Castaneda (ft Paquito D'Rivera, Ari Hoenig, Oscar Staganaro, Marshall Gilkes, Dave Silliman ect) - Cuarto De Colores (2005) [FLAC]
Видео для аппетита:
Доп. информация: http://www.edmarcastaneda.com/
 
Alternate Cover
 
Лог создания рипа
X Lossless Decoder version 20151214 (149.1)
XLD extraction logfile from 2016-02-17 01:11:51 -0500
Edmar Castaneda / Double Portion
Used drive : Apple SuperDrive (revision 2.03)
Media type : Pressed CD
Ripper mode : XLD Secure Ripper
Disable audio cache : OK for the drive with a cache less than 1375KiB
Make use of C2 pointers : NO
Read offset correction : 6
Max retry count : 20
Gap status : Analyzed, Appended (except HTOA)
TOC of the extracted CD
Track | Start | Length | Start sector | End sector
---------------------------------------------------------
1 | 00:00:00 | 08:16:09 | 0 | 37208
2 | 08:16:09 | 04:21:14 | 37209 | 56797
3 | 12:37:23 | 05:24:40 | 56798 | 81137
4 | 18:01:63 | 06:22:64 | 81138 | 109851
5 | 24:24:52 | 05:11:26 | 109852 | 133202
6 | 29:36:03 | 04:55:26 | 133203 | 155353
7 | 34:31:29 | 09:54:18 | 155354 | 199921
8 | 44:25:47 | 06:10:04 | 199922 | 227675
9 | 50:35:51 | 07:26:66 | 227676 | 261191
10 | 58:02:42 | 04:17:29 | 261192 | 280495
AccurateRip Summary (DiscID: 00178ab8-00bc76b5-a10e9b0a)
Track 01 : OK (v2, confidence 3/3)
Track 02 : OK (v2, confidence 3/3)
Track 03 : OK (v2, confidence 3/3)
Track 04 : OK (v2, confidence 3/3)
Track 05 : OK (v2, confidence 3/3)
Track 06 : OK (v2, confidence 3/3)
Track 07 : NG (total 3 submissions)
Track 08 : OK (v2, confidence 3/3)
Track 09 : OK (v2, confidence 3/3)
Track 10 : OK (v2, confidence 2/2)
->9 tracks accurately ripped, 1 track not
All Tracks
Album gain : -3.64 dB
Peak : 0.999939
Statistics
Read error : 0
Jitter error (maybe fixed) : 0
Retry sector count : 0
Damaged sector count : 0
Track 01
Filename : /Users/danielchen/Music/Edmar Castaneda - Double Portion (2012) [FLAC]/01 Double Portion.flac
Pre-gap length : 00:02:00
Track gain : -2.08 dB
Peak : 0.999939
CRC32 hash (test run) : B18C6FFD
CRC32 hash : B18C6FFD
CRC32 hash (skip zero) : FA2BDF0B
AccurateRip v1 signature : BC7B815E
AccurateRip v2 signature : 8C32FF31
->Accurately ripped (v2, confidence 3/3)
Statistics
Read error : 0
Jitter error (maybe fixed) : 0
Retry sector count : 0
Damaged sector count : 0
Track 02
Filename : /Users/danielchen/Music/Edmar Castaneda - Double Portion (2012) [FLAC]/02 Zeudi.flac
Track gain : -2.63 dB
Peak : 0.994049
CRC32 hash (test run) : D78CB89B
CRC32 hash : D78CB89B
CRC32 hash (skip zero) : 1B055667
AccurateRip v1 signature : DB5FB57D
AccurateRip v2 signature : 4164481F
->Accurately ripped (v2, confidence 3/3)
Statistics
Read error : 0
Jitter error (maybe fixed) : 0
Retry sector count : 0
Damaged sector count : 0
Track 03
Filename : /Users/danielchen/Music/Edmar Castaneda - Double Portion (2012) [FLAC]/03 A Harp in New York.flac
Track gain : -4.31 dB
Peak : 0.995941
CRC32 hash (test run) : 511E9E50
CRC32 hash : 511E9E50
CRC32 hash (skip zero) : 8FF83BE6
AccurateRip v1 signature : 2BC49994
AccurateRip v2 signature : E99A96FA
->Accurately ripped (v2, confidence 3/3)
Statistics
Read error : 0
Jitter error (maybe fixed) : 0
Retry sector count : 0
Damaged sector count : 0
Track 04
Filename : /Users/danielchen/Music/Edmar Castaneda - Double Portion (2012) [FLAC]/04 Poem of Strings.flac
Track gain : -4.57 dB
Peak : 0.996552
CRC32 hash (test run) : B3EAEDB7
CRC32 hash : B3EAEDB7
CRC32 hash (skip zero) : 194D8B44
AccurateRip v1 signature : 7970E1C5
AccurateRip v2 signature : F1FB6BD9
->Accurately ripped (v2, confidence 3/3)
Statistics
Read error : 0
Jitter error (maybe fixed) : 0
Retry sector count : 0
Damaged sector count : 0
Track 05
Filename : /Users/danielchen/Music/Edmar Castaneda - Double Portion (2012) [FLAC]/05 Libertango.flac
Track gain : -3.58 dB
Peak : 0.999939
CRC32 hash (test run) : C94CB8A0
CRC32 hash : C94CB8A0
CRC32 hash (skip zero) : BD0DF1BB
AccurateRip v1 signature : 2E962266
AccurateRip v2 signature : 0F26FE8B
->Accurately ripped (v2, confidence 3/3)
Statistics
Read error : 0
Jitter error (maybe fixed) : 0
Retry sector count : 0
Damaged sector count : 0
Track 06
Filename : /Users/danielchen/Music/Edmar Castaneda - Double Portion (2012) [FLAC]/06 Ocaso De Mar.flac
Track gain : -1.72 dB
Peak : 0.942566
CRC32 hash (test run) : BA97A8E8
CRC32 hash : BA97A8E8
CRC32 hash (skip zero) : F82C3000
AccurateRip v1 signature : 0499B63C
AccurateRip v2 signature : DD135937
->Accurately ripped (v2, confidence 3/3)
Statistics
Read error : 0
Jitter error (maybe fixed) : 0
Retry sector count : 0
Damaged sector count : 0
Track 07
Filename : /Users/danielchen/Music/Edmar Castaneda - Double Portion (2012) [FLAC]/07 Quitapesares.flac
Track gain : -4.49 dB
Peak : 0.890900
CRC32 hash (test run) : 5D1688C3
CRC32 hash : 5D1688C3
CRC32 hash (skip zero) : F96F8E4C
AccurateRip v1 signature : B9F08175
AccurateRip v2 signature : 16BAEA29
->Rip may not be accurate (total 3 submissions).
Statistics
Read error : 0
Jitter error (maybe fixed) : 0
Retry sector count : 0
Damaged sector count : 0
Track 08
Filename : /Users/danielchen/Music/Edmar Castaneda - Double Portion (2012) [FLAC]/08 Portrait D'un Jardin.flac
Track gain : 0.44 dB
Peak : 0.852448
CRC32 hash (test run) : 625629B0
CRC32 hash : 625629B0
CRC32 hash (skip zero) : 6AB8B300
AccurateRip v1 signature : AE4B9222
AccurateRip v2 signature : A8E0277C
->Accurately ripped (v2, confidence 3/3)
Statistics
Read error : 0
Jitter error (maybe fixed) : 0
Retry sector count : 0
Damaged sector count : 0
Track 09
Filename : /Users/danielchen/Music/Edmar Castaneda - Double Portion (2012) [FLAC]/09 A La Tierra.flac
Track gain : -4.59 dB
Peak : 0.891235
CRC32 hash (test run) : 8C796790
CRC32 hash : 8C796790
CRC32 hash (skip zero) : 0DFA500F
AccurateRip v1 signature : 238332E4
AccurateRip v2 signature : 3C536E16
->Accurately ripped (v2, confidence 3/3)
Statistics
Read error : 0
Jitter error (maybe fixed) : 0
Retry sector count : 0
Damaged sector count : 0
Track 10
Filename : /Users/danielchen/Music/Edmar Castaneda - Double Portion (2012) [FLAC]/10 Samba for Orvieto.flac
Track gain : -2.29 dB
Peak : 0.999939
CRC32 hash (test run) : 39FAF26D
CRC32 hash : 39FAF26D
CRC32 hash (skip zero) : 0208D8C1
AccurateRip v1 signature : 6A851AF0
AccurateRip v2 signature : 05A62D32
->Accurately ripped (v2, confidence 2/2)
Statistics
Read error : 0
Jitter error (maybe fixed) : 0
Retry sector count : 0
Damaged sector count : 0
No errors occurred
End of status report
-----BEGIN XLD SIGNATURE-----
Hqx870PBQt7XQ.b4afXWhD7T0NV6Qv.9kVZvpvJ7ctcA65kCWxvwIZdJ45CH8gF0EVJReWUXyVaEriw7Bsg2u0u9suSCnawFt4EkhAm
-----END XLD SIGNATURE-----
 
Содержание индексной карты (.CUE)
TITLE "Double Portion"
PERFORMER "Edmar Castaneda"
REM GENRE "Jazz"
REM DATE "2012"
REM DISCNUMBER 1
REM TOTALDISCS 1
REM DISCID A10E9B0A
REM REPLAYGAIN_ALBUM_GAIN -3.64 dB
REM REPLAYGAIN_ALBUM_PEAK 0.999939
FILE "01 Double Portion.flac" WAVE
TRACK 01 AUDIO
TITLE "Double Portion"
SONGWRITER "La Castañeda"
FLAGS DCP
REM REPLAYGAIN_TRACK_GAIN -2.08 dB
REM REPLAYGAIN_TRACK_PEAK 0.999939
INDEX 01 00:00:00
FILE "02 Zeudi.flac" WAVE
TRACK 02 AUDIO
TITLE "Zeudi"
SONGWRITER "La Castañeda"
FLAGS DCP
REM REPLAYGAIN_TRACK_GAIN -2.63 dB
REM REPLAYGAIN_TRACK_PEAK 0.994049
INDEX 01 00:00:00
FILE "03 A Harp in New York.flac" WAVE
TRACK 03 AUDIO
TITLE "A Harp in New York"
SONGWRITER "La Castañeda"
FLAGS DCP
REM REPLAYGAIN_TRACK_GAIN -4.31 dB
REM REPLAYGAIN_TRACK_PEAK 0.995941
INDEX 01 00:00:00
FILE "04 Poem of Strings.flac" WAVE
TRACK 04 AUDIO
TITLE "Poem of Strings"
SONGWRITER "La Castañeda"
FLAGS DCP
REM REPLAYGAIN_TRACK_GAIN -4.57 dB
REM REPLAYGAIN_TRACK_PEAK 0.996552
INDEX 01 00:00:00
FILE "05 Libertango.flac" WAVE
TRACK 05 AUDIO
TITLE "Libertango"
SONGWRITER "La Castañeda"
FLAGS DCP
REM REPLAYGAIN_TRACK_GAIN -3.58 dB
REM REPLAYGAIN_TRACK_PEAK 0.999939
INDEX 01 00:00:00
FILE "06 Ocaso De Mar.flac" WAVE
TRACK 06 AUDIO
TITLE "Ocaso De Mar"
SONGWRITER "La Castañeda"
FLAGS DCP
REM REPLAYGAIN_TRACK_GAIN -1.72 dB
REM REPLAYGAIN_TRACK_PEAK 0.942566
INDEX 01 00:00:00
FILE "07 Quitapesares.flac" WAVE
TRACK 07 AUDIO
TITLE "Quitapesares"
SONGWRITER "La Castañeda"
FLAGS DCP
REM REPLAYGAIN_TRACK_GAIN -4.49 dB
REM REPLAYGAIN_TRACK_PEAK 0.890900
INDEX 01 00:00:00
FILE "08 Portrait D'un Jardin.flac" WAVE
TRACK 08 AUDIO
TITLE "Portrait D'un Jardin"
SONGWRITER "La Castañeda"
FLAGS DCP
REM REPLAYGAIN_TRACK_GAIN 0.44 dB
REM REPLAYGAIN_TRACK_PEAK 0.852448
INDEX 01 00:00:00
FILE "09 A La Tierra.flac" WAVE
TRACK 09 AUDIO
TITLE "A La Tierra"
SONGWRITER "La Castañeda"
FLAGS DCP
REM REPLAYGAIN_TRACK_GAIN -4.59 dB
REM REPLAYGAIN_TRACK_PEAK 0.891235
INDEX 01 00:00:00
FILE "10 Samba for Orvieto.flac" WAVE
TRACK 10 AUDIO
TITLE "Samba for Orvieto"
SONGWRITER "La Castañeda"
FLAGS DCP
REM REPLAYGAIN_TRACK_GAIN -2.29 dB
REM REPLAYGAIN_TRACK_PEAK 0.999939
INDEX 01 00:00:00
 
Об исполнителе | About Artist
Edmar Castañeda (born 1978 in Bogotá, Colombia) is a Colombian harpist. He performs his own compositions as well as tapping into native Music of Colombia, Music of Venezuela; Joropo and Music of Argentina, Zamba. He tours regularly as the leader of the Edmar Castañeda Trio, together with David Silliman on drums/percussion and Marshall Gilkes on trombone. He is also a band member for the Andrea Tierra Quartet whose members are Andrea Tierra on vocals, Sam Sadigursky on flute/clarinet/saxophone, and David Silliman.
Castañeda is the son of Colombian harp player, composer, singer, teacher Pavelid Castañeda.
He has performed with Paquito D'Rivera, Wynton Marsalis, John Scofield, Joe Locke, JLCO, John Patitucci, Giovanni Hidalgo, Lila Downs, Janis Siegel, Chico O'Farrill Afro-Cuban jazz big band, The United Nations Orchestra, Simón Diaz, Samuel Torres among other renowned musicians.
In 2006 he released his first solo album Cuarto de Colores. Entre Cuerdas followed in June 2009. His latest album Double Portion was released in March 2012.
 
Об альбоме | About Album
Double Portion is a solo harp album interpreting the Colombian and The classical harp. Special Guests, Gonzalo Rubalcaba on piano, Miguel Zenon on Alto Sax and Hamilton de Holanda on Mandolina.
 
Состав
Edmar Castañeda - Colombian & The Classical Harp
Gonzalo Rubalcaba - Piano
Miguel Zenón ‎- Alto Sax
Hamilton de Holanda - Mandolina
Эдмар Кастанеда (род. 31 марта 1978 г. в Боготе, столице Колумбии) – один из лучших джазовых арфистов современности, в музыке которого плавно переплетаются различные стили и направления. Кастанеда создал новый музыкальный язык, объединяющий иберийскую музыку XVIII века, вальс, танго, фламенко и традиционные колумбийские, венесуэльские, аргентинские, бразильские, африканские гармонии и ритмы. После переезда в США в 1994 году Эдмар буквально покорил Нью-Йорк и мировую сцену виртуозной и оригинальной игрой на арфе, где джаз и этника сосуществуют на равных. Стоит отметить, что Кастанеда играет на народной колумбийской арфе – el arpa llanera (что означает «арфа с равнин»), на которой в Колумбии играют только мужчины, а также на классической арфе.
20:49
391
Нет комментариев. Ваш будет первым!