Поиск

(Ethnic jazz, fusion) [CD] Istanbul'un Sesi Orkestrasi - istanbul'un Sesi Orkestrasi - 2000, FLAC (tracks+.cue), lossless

(Ethnic jazz, fusion) [CD] Istanbul'un Sesi Orkestrasi - istanbul'un Sesi Orkestrasi - 2000, FLAC (tracks+.cue), lossless

Istanbul'un Sesi Orkestrasi - istanbul'un Sesi Orkestrasi - 2000
Жанр: Ethnic jazz, fusion
Носитель: CD (compilation, archival)
Страна-производитель диска (релиза): Turkey
Год издания оригинала: 2000
Издатель (лейбл): Unknown
Номер по каталогу: Unknown
Страна исполнителя (группы): Turkey
Аудио кодек: FLAC (*.flac)
Тип рипа: (tracks + .cue)
Битрейт аудио: lossless
Корректность рипа: cue создан не в ЕАСе
Наличие сканов в содержимом раздачи: front, back
Продолжительность: 45:59
Источник (релизер): camus20 (Redacted, with kind permission)
Трэклист:
01 Istanbul'un Sesi (Engin Duzol)
02 Caravan (Ellington)
03 Patetik Sonat (Ludvig Van Beethoven)
04 Orient Express (Engin Duzol)
05 Kugu Gölü (Engin Duzol)
06 Sultan-i Yegah Sirto (Tzchaikowky)
07 Hüzün Aksami (Engin Duzol)
08 Medeni Haller (Engin Duzol)
 
Лог создания рипа (4. May 2016)
Exact Audio Copy V1.1 from 23. June 2015
EAC extraction logfile from 4. May 2016, 13:43
Istanbul'un Sesi Orkestrasi / tanbul'un Sesi Orkestrasi
Used drive : ASUS DRW-24F1ST a Adapter: 1 ID: 0
Read mode : Secure
Utilize accurate stream : Yes
Defeat audio cache : Yes
Make use of C2 pointers : No
Read offset correction : 6
Overread into Lead-In and Lead-Out : No
Fill up missing offset samples with silence : Yes
Delete leading and trailing silent blocks : No
Null samples used in CRC calculations : Yes
Used interface : Native Win32 interface for Win NT & 2000
Gap handling : Appended to previous track
Used output format : User Defined Encoder
Selected bitrate : 1024 kBit/s
Quality : High
Add ID3 tag : No
Command line compressor : C:\Program Files (x86)\Exact Audio Copy\Flac\flac.exe
Additional command line options : -8 -e -V -T "ARTIST=%artist%" -T "TITLE=%title%" -T "ALBUM=%albumtitle%" -T "DATE=%year%" -T "TRACKNUMBER=%tracknr%" -T "GENRE=%genre%" -T "PERFORMER=%albuminterpret%" -T "COMPOSER=%composer%" %haslyrics%--tag-from-file=LYRICS="%lyricsfile%"%haslyrics% -T "ALBUMARTIST=%albumartist%" -T "DISCNUMBER=%cdnumber%" -T "TOTALDISCS=%totalcds%" -T "TOTALTRACKS=%numtracks%" -T "COMMENT=%comment%" %source% -o %dest%
TOC of the extracted CD
Track | Start | Length | Start sector | End sector
---------------------------------------------------------
1 | 0:00.00 | 7:07.42 | 0 | 32066
2 | 7:07.42 | 8:24.05 | 32067 | 69871
3 | 15:31.47 | 2:45.30 | 69872 | 82276
4 | 18:17.02 | 4:29.58 | 82277 | 102509
5 | 22:46.60 | 7:37.55 | 102510 | 136839
6 | 30:24.40 | 7:53.40 | 136840 | 172354
7 | 38:18.05 | 6:12.70 | 172355 | 200324
8 | 44:31.00 | 1:28.22 | 200325 | 206946
Track 1
Filename M:\EAC_rips\Istanbul'un Sesi Orkestrasi _ tanbul'un Sesi Orkestrasi (2000) [FLAC]\01_Istanbul'un Sesi.wav
Pre-gap length 0:00:02.00
Peak level 94.1 %
Extraction speed 4.6 X
Track quality 100.0 %
Test CRC 9FC436F6
Copy CRC 9FC436F6
Track not present in AccurateRip database
Copy OK
Track 2
Filename M:\EAC_rips\Istanbul'un Sesi Orkestrasi _ tanbul'un Sesi Orkestrasi (2000) [FLAC]\02_Caravan.wav
Pre-gap length 0:00:02.58
Peak level 95.8 %
Extraction speed 5.5 X
Track quality 100.0 %
Test CRC 55348B9E
Copy CRC 55348B9E
Track not present in AccurateRip database
Copy OK
Track 3
Filename M:\EAC_rips\Istanbul'un Sesi Orkestrasi _ tanbul'un Sesi Orkestrasi (2000) [FLAC]\03_Patetik Sonat.wav
Pre-gap length 0:00:02.60
Peak level 99.9 %
Extraction speed 5.2 X
Track quality 100.0 %
Test CRC E2A86A8A
Copy CRC E2A86A8A
Track not present in AccurateRip database
Copy OK
Track 4
Filename M:\EAC_rips\Istanbul'un Sesi Orkestrasi _ tanbul'un Sesi Orkestrasi (2000) [FLAC]\04_Orient Express.wav
Pre-gap length 0:00:02.60
Peak level 95.0 %
Extraction speed 5.9 X
Track quality 100.0 %
Test CRC 545836D6
Copy CRC 545836D6
Track not present in AccurateRip database
Copy OK
Track 5
Filename M:\EAC_rips\Istanbul'un Sesi Orkestrasi _ tanbul'un Sesi Orkestrasi (2000) [FLAC]\05_Kugu Gölü.wav
Pre-gap length 0:00:02.60
Peak level 99.4 %
Extraction speed 6.7 X
Track quality 100.0 %
Test CRC FDDD9759
Copy CRC FDDD9759
Track not present in AccurateRip database
Copy OK
Track 6
Filename M:\EAC_rips\Istanbul'un Sesi Orkestrasi _ tanbul'un Sesi Orkestrasi (2000) [FLAC]\06_Sultan-i Yegah Sirto.wav
Pre-gap length 0:00:02.60
Peak level 97.4 %
Extraction speed 7.2 X
Track quality 100.0 %
Test CRC DBC86DAA
Copy CRC DBC86DAA
Track not present in AccurateRip database
Copy OK
Track 7
Filename M:\EAC_rips\Istanbul'un Sesi Orkestrasi _ tanbul'un Sesi Orkestrasi (2000) [FLAC]\07_Hüzün Aksami.wav
Pre-gap length 0:00:02.61
Peak level 94.5 %
Extraction speed 7.4 X
Track quality 100.0 %
Test CRC 04D91261
Copy CRC 04D91261
Track not present in AccurateRip database
Copy OK
Track 8
Filename M:\EAC_rips\Istanbul'un Sesi Orkestrasi _ tanbul'un Sesi Orkestrasi (2000) [FLAC]\08_Medeni Haller.wav
Pre-gap length 0:00:02.60
Peak level 95.8 %
Extraction speed 3.7 X
Track quality 99.8 %
Test CRC 1FB52B9A
Copy CRC 1FB52B9A
Track not present in AccurateRip database
Copy OK
None of the tracks are present in the AccurateRip database
No errors occurred
End of status report
---- CUETools DB Plugin V2.1.6
[CTDB TOCID: fJEQg99A5XGOgwBaXTLNZRyQHMI-] disk not present in database
Submit result: fJEQg99A5XGOgwBaXTLNZRyQHMI- has been uploaded
==== Log checksum E75AF84DBBD7BAD4CABF2672DF9D1FA2094028B9E9AF20BE611C53506DBCD3C3 ====
 
Содержание индексной карты (.CUE):
REM COMMENT "CUETools generated dummy CUE sheet"
FILE "01_Istanbul'un Sesi.flac" WAVE
TRACK 01 AUDIO
INDEX 01 00:00:00
FILE "02_Caravan.flac" WAVE
TRACK 02 AUDIO
INDEX 01 00:00:00
FILE "03_Patetik Sonat.flac" WAVE
TRACK 03 AUDIO
INDEX 01 00:00:00
FILE "04_Orient Express.flac" WAVE
TRACK 04 AUDIO
INDEX 01 00:00:00
FILE "05_Kugu Gölü.flac" WAVE
TRACK 05 AUDIO
INDEX 01 00:00:00
FILE "06_Sultan-i Yegah Sirto.flac" WAVE
TRACK 06 AUDIO
INDEX 01 00:00:00
FILE "07_Hüzün Aksami.flac" WAVE
TRACK 07 AUDIO
INDEX 01 00:00:00
FILE "08_Medeni Haller.flac" WAVE
TRACK 08 AUDIO
INDEX 01 00:00:00
 
Лог проверки качества
-----------------------
DON'T MODIFY THIS FILE
-----------------------
PERFORMER: auCDtect Task Manager, ver. 1.6.0 RC1 build 1.6.0.1
Copyright (c) 2008-2010 y-soft. All rights reserved
http://y-soft.org
ANALYZER: auCDtect: CD records authenticity detector, version 0.8.2
Copyright (c) 2004 Oleg Berngardt. All rights reserved.
Copyright (c) 2004 Alexander Djourik. All rights reserved.
FILE: 08_Medeni Haller.flac
Size: 8910782 Hash: 1DF740F5BC45D04DFFE8F57E6554478F Accuracy: -m0
Conclusion: CDDA 100%
Signature: D35DCFC5FA0EA4E6AB6B087FE1D8F39AEAF3F861
FILE: 07_Hüzün Aksami.flac
Size: 41858762 Hash: 9D1868D28C3BF2F9FF3711B105CE7A0E Accuracy: -m0
Conclusion: CDDA 100%
Signature: 0AB85406495B0D99C5214346A4F2AA38DF98F885
FILE: 06_Sultan-i Yegah Sirto.flac
Size: 54985721 Hash: 4842DEBDD313E886CF03A3A61BAEDD68 Accuracy: -m0
Conclusion: CDDA 99%
Signature: E277D783353D04CD031898ED4EC56447B97AE2C5
FILE: 05_Kugu Gölü.flac
Size: 49541000 Hash: 30242F8ACFE6BCFAC0886A57C3AA4813 Accuracy: -m0
Conclusion: CDDA 100%
Signature: A79D0AF7EE334BC15EAAA64C371753985735BB5A
FILE: 04_Orient Express.flac
Size: 31197720 Hash: 8597AC7AEDE630AD37D2880CCAB83947 Accuracy: -m0
Conclusion: CDDA 100%
Signature: A137643907BFB18F6302C6BC8039854385E54AED
FILE: 03_Patetik Sonat.flac
Size: 18432096 Hash: FD6A0EF4EB3173640F7AD5A03C6C18B0 Accuracy: -m0
Conclusion: CDDA 100%
Signature: 82B1958600F6F9816D86A4152ECB1969A2DA9800
FILE: 02_Caravan.flac
Size: 47861284 Hash: 53C6997E2DA4D07ED25AAC4C14EA80AB Accuracy: -m0
Conclusion: CDDA 100%
Signature: E2D0200B115E679435C77D1137BAD1A7238D22F8
FILE: 01_Istanbul'un Sesi.flac
Size: 44588782 Hash: 8BF1A5B17E1B0FB753CFB7C49FA4F7DF Accuracy: -m0
Conclusion: CDDA 100%
Signature: 9F18FAB807269CB26F339BE13DA39B6F4986F14A
 
Лог CUETools
[CUETools log; Date: 4/22/2017 7:08:19 PM; Version: 2.1.5]
[CTDB TOCID: fJEQg99A5XGOgwBaXTLNZRyQHMI-] found.
Track | CTDB Status
1 | (1/1) Accurately ripped
2 | (1/1) Accurately ripped
3 | (1/1) Accurately ripped
4 | (1/1) Accurately ripped
5 | (1/1) Accurately ripped
6 | (1/1) Accurately ripped
7 | (1/1) Accurately ripped
8 | (1/1) Accurately ripped
[AccurateRip ID: 000f4eb9-0064d4b9-6d0ac708] disk not present in database.
Track Peak [ CRC32 ] [W/O NULL] [ LOG ]
-- 99.9 [6CC888ED] [C8514093]
01 94.1 [9FC436F6] [7A13FF61] CRC32
02 95.8 [55348B9E] [99EC50EE] CRC32
03 99.9 [E2A86A8A] [60789693] CRC32
04 95.0 [545836D6] [955554A2] CRC32
05 99.4 [FDDD9759] [334B518F] CRC32
06 97.4 [DBC86DAA] [C807FF9F] CRC32
07 94.5 [04D91261] [353B3184] CRC32
08 95.8 [1FB52B9A] [A986A01B] CRC32

 
Back
00:29
296
Нет комментариев. Ваш будет первым!