Поиск

(Ethnic fusion, Easy listening, Instrumental, Oriental) [CD] Shir Nash - Instrumentals - East & West - 2009, FLAC (tracks+.cue), lossless

(Ethnic fusion, Easy listening, Instrumental, Oriental) [CD] Shir Nash - Instrumentals - East & West - 2009, FLAC (tracks+.cue), lossless



Shir Nash - Instrumentals - East & West - 2009
Жанр: Ethnic fusion, Easy listening, Instrumental, Oriental
Носитель: CD
Страна-производитель диска (релиза): UK
Год издания оригинала: 2009
Издатель (лейбл): Lynne Moritz, NTS Productions
Номер по каталогу: No number
Страна исполнителя (группы): Israel
Аудио кодек: FLAC (*.flac)
Тип рипа: (tracks + .cue)
Битрейт аудио: lossless
Наличие сканов в содержимом раздачи: full scans, png, 300 dpi
Продолжительность: 31:30
Источник (релизер): Моя коллекция, мой рип
Трэклист:
01 - East & West
02 - Dreams
03 - Remember You
04 - She
05 - Color of Love
06 - Green Forest
07 - Seniorita
08 - Mystery
 
Лог создания рипа (2. April 2017)
Exact Audio Copy V1.3 from 2. September 2016
EAC extraction logfile from 2. April 2017, 17:57
Shir Nash / Instrumentals - East & West
Used drive : HL-DT-STDVDRAM GH24NSB0 Adapter: 1 ID: 0
Read mode : Secure
Utilize accurate stream : Yes
Defeat audio cache : Yes
Make use of C2 pointers : No
Read offset correction : 6
Overread into Lead-In and Lead-Out : No
Fill up missing offset samples with silence : Yes
Delete leading and trailing silent blocks : No
Null samples used in CRC calculations : Yes
Used interface : Native Win32 interface for Win NT & 2000
Gap handling : Appended to previous track
Used output format : User Defined Encoder
Selected bitrate : 1024 kBit/s
Quality : High
Add ID3 tag : No
Command line compressor : C:\Program Files (x86)\Exact Audio Copy\FLAC\FLAC.EXE
Additional command line options : -V -8 -T "Genre=%genre%" -T "Artist=%artist%" -T "Title=%title%" -T "Album=%albumtitle%" -T "Date=%year%" -T "Tracknumber=%tracknr%" -T "Comment=%comment%" %source%
TOC of the extracted CD
Track | Start | Length | Start sector | End sector
---------------------------------------------------------
1 | 0:00.00 | 3:53.14 | 0 | 17488
2 | 3:53.14 | 4:07.00 | 17489 | 36013
3 | 8:00.14 | 4:14.00 | 36014 | 55063
4 | 12:14.14 | 3:27.00 | 55064 | 70588
5 | 15:41.14 | 3:58.00 | 70589 | 88438
6 | 19:39.14 | 3:34.00 | 88439 | 104488
7 | 23:13.14 | 3:52.00 | 104489 | 121888
8 | 27:05.14 | 4:25.57 | 121889 | 141820
Track 1
Filename D:\Music\New rips\Shir Nash - Instrumentals - East & West - 2009 (NTS Productions) [FLAC]\01 - East & West.wav
Pre-gap length 0:00:02.00
Peak level 96.1 %
Extraction speed 1.0 X
Track quality 100.0 %
Test CRC 2D29F0ED
Copy CRC 2D29F0ED
Track not present in AccurateRip database
Copy OK
Track 2
Filename D:\Music\New rips\Shir Nash - Instrumentals - East & West - 2009 (NTS Productions) [FLAC]\02 - Dreams.wav
Peak level 95.0 %
Extraction speed 1.0 X
Track quality 99.9 %
Test CRC D9C25167
Copy CRC D9C25167
Track not present in AccurateRip database
Copy OK
Track 3
Filename D:\Music\New rips\Shir Nash - Instrumentals - East & West - 2009 (NTS Productions) [FLAC]\03 - Remember You.wav
Peak level 87.1 %
Extraction speed 1.2 X
Track quality 100.0 %
Test CRC E93508C3
Copy CRC E93508C3
Track not present in AccurateRip database
Copy OK
Track 4
Filename D:\Music\New rips\Shir Nash - Instrumentals - East & West - 2009 (NTS Productions) [FLAC]\04 - She.wav
Peak level 83.6 %
Extraction speed 1.3 X
Track quality 100.0 %
Test CRC 8EA8A025
Copy CRC 8EA8A025
Track not present in AccurateRip database
Copy OK
Track 5
Filename D:\Music\New rips\Shir Nash - Instrumentals - East & West - 2009 (NTS Productions) [FLAC]\05 - Color of Love.wav
Peak level 97.4 %
Extraction speed 1.4 X
Track quality 100.0 %
Test CRC A891EF04
Copy CRC A891EF04
Track not present in AccurateRip database
Copy OK
Track 6
Filename D:\Music\New rips\Shir Nash - Instrumentals - East & West - 2009 (NTS Productions) [FLAC]\06 - Green Forest.wav
Peak level 95.6 %
Extraction speed 1.5 X
Track quality 100.0 %
Test CRC 3F268086
Copy CRC 3F268086
Track not present in AccurateRip database
Copy OK
Track 7
Filename D:\Music\New rips\Shir Nash - Instrumentals - East & West - 2009 (NTS Productions) [FLAC]\07 - Seniorita.wav
Peak level 85.1 %
Extraction speed 1.6 X
Track quality 100.0 %
Test CRC 69B56742
Copy CRC 69B56742
Track not present in AccurateRip database
Copy OK
Track 8
Filename D:\Music\New rips\Shir Nash - Instrumentals - East & West - 2009 (NTS Productions) [FLAC]\08 - Mystery.wav
Peak level 93.6 %
Extraction speed 1.7 X
Track quality 100.0 %
Test CRC 241DA3C6
Copy CRC 241DA3C6
Track not present in AccurateRip database
Copy OK
None of the tracks are present in the AccurateRip database
No errors occurred
End of status report
==== Log checksum 5B8EACC4B14B1E23D7DE00E781B55B19DFA4E2341C7DE539ECDA0BB6656E18D3 ====
 
Содержание индексной карты (.CUE):
REM GENRE "Easy Listening"
REM DATE 2009
REM DISCID 67076208
REM COMMENT "ExactAudioCopy v1.3"
PERFORMER "Shir Nash"
TITLE "Instrumentals - East & West"
REM COMPOSER ""
FILE "01 - East & West.wav" WAVE
TRACK 01 AUDIO
TITLE "East & West"
PERFORMER "Shir Nash"
REM COMPOSER ""
FLAGS DCP
INDEX 01 00:00:00
FILE "02 - Dreams.wav" WAVE
TRACK 02 AUDIO
TITLE "Dreams"
PERFORMER "Shir Nash"
REM COMPOSER ""
FLAGS DCP
INDEX 01 00:00:00
FILE "03 - Remember You.wav" WAVE
TRACK 03 AUDIO
TITLE "Remember You"
PERFORMER "Shir Nash"
REM COMPOSER ""
FLAGS DCP
INDEX 01 00:00:00
FILE "04 - She.wav" WAVE
TRACK 04 AUDIO
TITLE "She"
PERFORMER "Shir Nash"
REM COMPOSER ""
FLAGS DCP
INDEX 01 00:00:00
FILE "05 - Color of Love.wav" WAVE
TRACK 05 AUDIO
TITLE "Color of Love"
PERFORMER "Shir Nash"
REM COMPOSER ""
FLAGS DCP
INDEX 01 00:00:00
FILE "06 - Green Forest.wav" WAVE
TRACK 06 AUDIO
TITLE "Green Forest"
PERFORMER "Shir Nash"
REM COMPOSER ""
FLAGS DCP
INDEX 01 00:00:00
FILE "07 - Seniorita.wav" WAVE
TRACK 07 AUDIO
TITLE "Seniorita"
PERFORMER "Shir Nash"
REM COMPOSER ""
FLAGS DCP
INDEX 01 00:00:00
FILE "08 - Mystery.wav" WAVE
TRACK 08 AUDIO
TITLE "Mystery"
PERFORMER "Shir Nash"
REM COMPOSER ""
FLAGS DCP
INDEX 01 00:00:00
 
Лог проверки качества

 
Матрица
 
Back
 
Состав
Drums - Aaron Yofe
Bass - Adam Cohen & Shir Nash
Percussion - George Kaminski, Asaf Berg
Sax - Avi Lustig
Piano & Keyboards - David Antony
Cello - Alina Moscovich
Violin - Antonio Itzcovi
Acoustic, electric guitar and qud - Shir Nash

00:30
294
Нет комментариев. Ваш будет первым!