Поиск

(Ethnic Jazz) [CD] Saagara (Waclaw Zimpel's Indian Orchestra) - 2 - 2017, FLAC (tracks+.cue), lossless

(Ethnic Jazz) [CD] Saagara (Waclaw Zimpel's Indian Orchestra) - 2 - 2017, FLAC (tracks+.cue), lossless
Saagara ' 2
Жанр: Ethnic Jazz
Страна-производитель диска: Poland
Год издания: 2017
Издатель (лейбл): Instant Classic
Номер по каталогу: CLASSIC059CD
Страна исполнителя: Poland/India
Аудиокодек: FLAC (*.flac)
Тип рипа: tracks+.cue
Битрейт аудио: lossless
Продолжительность: 41:04
Источник (релизер): спасибо daodrozd
Наличие сканов: нет
Треклист:
1. Daydream
2. Spring Fever
3. Hoofbeat
4. Uprise
5. Hot Blooded
6. Ebb and Flow
7. Lanes
8. Morphidia
 
Лог создания рипа
X Lossless Decoder version 20161007 (149.3)
XLD extraction logfile from 2017-03-07 18:33:25 +0100
Saagara / 2
Used drive : HL-DT-ST DVDRW GX50N (revision RR06)
Media type : Pressed CD
Ripper mode : XLD Secure Ripper
Disable audio cache : OK for the drive with a cache less than 1375KiB
Make use of C2 pointers : NO
Read offset correction : 6
Max retry count : 20
Gap status : Analyzed, Appended
TOC of the extracted CD
Track | Start | Length | Start sector | End sector
---------------------------------------------------------
1 | 00:00:00 | 05:06:09 | 0 | 22958
2 | 05:06:09 | 04:49:43 | 22959 | 44676
3 | 09:55:52 | 05:16:56 | 44677 | 68432
4 | 15:12:33 | 07:01:14 | 68433 | 100021
5 | 22:13:47 | 04:29:30 | 100022 | 120226
6 | 26:43:02 | 05:04:64 | 120227 | 143090
7 | 31:47:66 | 04:27:07 | 143091 | 163122
8 | 36:14:73 | 03:16:03 | 163123 | 177825
AccurateRip Summary
Disc not found in AccurateRip DB.
All Tracks
Statistics
Read error : 0
Jitter error (maybe fixed) : 0
Retry sector count : 0
Damaged sector count : 0
Track 01
Filename : /Users/apple/Desktop/Saagara - 2 [2017]/01. Daydream.flac
Pre-gap length : 00:02:00
CRC32 hash : DF6ECF50
CRC32 hash (skip zero) : FF70737D
AccurateRip v1 signature : DEA11542
AccurateRip v2 signature : 7294395D
->Track not present in AccurateRip database.
Statistics
Read error : 0
Jitter error (maybe fixed) : 0
Retry sector count : 0
Damaged sector count : 0
Track 02
Filename : /Users/apple/Desktop/Saagara - 2 [2017]/02. Spring Fever.flac
CRC32 hash : BC44EF56
CRC32 hash (skip zero) : 4F48456E
AccurateRip v1 signature : 0FD365D4
AccurateRip v2 signature : 76014B27
->Track not present in AccurateRip database.
Statistics
Read error : 0
Jitter error (maybe fixed) : 0
Retry sector count : 0
Damaged sector count : 0
Track 03
Filename : /Users/apple/Desktop/Saagara - 2 [2017]/03. Hoofbeat.flac
CRC32 hash : D98AF048
CRC32 hash (skip zero) : ADAF7ED5
AccurateRip v1 signature : DE8D7062
AccurateRip v2 signature : 3B450B77
->Track not present in AccurateRip database.
Statistics
Read error : 0
Jitter error (maybe fixed) : 0
Retry sector count : 0
Damaged sector count : 0
Track 04
Filename : /Users/apple/Desktop/Saagara - 2 [2017]/04. Uprise.flac
CRC32 hash : 2C7FA0CA
CRC32 hash (skip zero) : AEBC61C3
AccurateRip v1 signature : 764F8797
AccurateRip v2 signature : 9F05A048
->Track not present in AccurateRip database.
Statistics
Read error : 0
Jitter error (maybe fixed) : 0
Retry sector count : 0
Damaged sector count : 0
Track 05
Filename : /Users/apple/Desktop/Saagara - 2 [2017]/05. Hot Blooded.flac
CRC32 hash : 355E21E4
CRC32 hash (skip zero) : 0E066C7B
AccurateRip v1 signature : 597B2574
AccurateRip v2 signature : 10E361BC
->Track not present in AccurateRip database.
Statistics
Read error : 0
Jitter error (maybe fixed) : 0
Retry sector count : 0
Damaged sector count : 0
Track 06
Filename : /Users/apple/Desktop/Saagara - 2 [2017]/06. Ebb and Flow.flac
CRC32 hash : 263188A3
CRC32 hash (skip zero) : FC066AE2
AccurateRip v1 signature : 869D3CB8
AccurateRip v2 signature : 52C9D261
->Track not present in AccurateRip database.
Statistics
Read error : 0
Jitter error (maybe fixed) : 0
Retry sector count : 0
Damaged sector count : 0
Track 07
Filename : /Users/apple/Desktop/Saagara - 2 [2017]/07. Lanes.flac
CRC32 hash : 46CB2142
CRC32 hash (skip zero) : FFA9ED53
AccurateRip v1 signature : 2CDF7B79
AccurateRip v2 signature : 362E0059
->Track not present in AccurateRip database.
Statistics
Read error : 0
Jitter error (maybe fixed) : 0
Retry sector count : 0
Damaged sector count : 0
Track 08
Filename : /Users/apple/Desktop/Saagara - 2 [2017]/08. Morphidia.flac
CRC32 hash : D7F231E2
CRC32 hash (skip zero) : B6243C38
AccurateRip v1 signature : F31129FE
AccurateRip v2 signature : 52C48417
->Track not present in AccurateRip database.
Statistics
Read error : 0
Jitter error (maybe fixed) : 0
Retry sector count : 0
Damaged sector count : 0
No errors occurred
End of status report
 
Содержание индексной карты (.CUE)
REM DATE 2017
REM COMMENT "Instant Classic, 2017"
TITLE "2"
FILE "01. Daydream.flac" WAVE
TRACK 07 AUDIO
PERFORMER "Saagara"
TITLE "Daydream"
INDEX 01 00:00:00
FILE "02. Spring Fever.flac" WAVE
TRACK 08 AUDIO
PERFORMER "Saagara"
TITLE "Spring Fever"
INDEX 01 00:00:00
FILE "03. Hoofbeat.flac" WAVE
TRACK 01 AUDIO
PERFORMER "Saagara"
TITLE "Hoofbeat"
INDEX 01 00:00:00
FILE "04. Uprise.flac" WAVE
TRACK 02 AUDIO
PERFORMER "Saagara"
TITLE "Uprise"
INDEX 01 00:00:00
FILE "05. Hot Blooded.flac" WAVE
TRACK 03 AUDIO
PERFORMER "Saagara"
TITLE "Hot Blooded"
INDEX 01 00:00:00
FILE "06. Ebb and Flow.flac" WAVE
TRACK 04 AUDIO
PERFORMER "Saagara"
TITLE "Ebb and Flow"
INDEX 01 00:00:00
FILE "07. Lanes.flac" WAVE
TRACK 05 AUDIO
PERFORMER "Saagara"
TITLE "Lanes"
INDEX 01 00:00:00
FILE "08. Morphidia.flac" WAVE
TRACK 06 AUDIO
PERFORMER "Saagara"
TITLE "Morphidia"
INDEX 01 00:00:00
 
Об альбоме
"2" was recorded in Bangalore last December. "I started my preparations around two months ahead of my trip to India", admits Zimpel. "Once the draft versions of songs were done, I decided to share them with my producer mooryc in Berlin. Together we clarified the structures, added some melodies and I was ready to jump on the plane. One of the first steps we took in India was to play some concerts. And although majority of our setlist each night consisted mainly of older tracks from Saagara's debut album, we managed to expand our sound by adding some electronics", he recalls.
"My main aim for this album was to create a bridge between Indian sounds and Western music logic in order to go against some popular trends", says Zimpel. "Saagara's first record was a deep dive into Karnatic tradition but I had to admit to myself that I am by no means a classical Indian musician. That's one of the reasons why I decided to steer the band to the West but avoiding popular world music clichés. Thankfully Saagara is a very creative entity."
"2" is a third Zimpel album to feature a significant input from Berlin-based producer mooryc. "I put significant effort to change my sound spectrum. mooryc is mostly associated with electronic music and maybe that's why his approach to acoustic instrument is fresh. It opens my mind to new means of expression", explains Wacław. "Our collaboration operates on constant thoughts exchange but this time his work is more visible all over the album despite the fact that he didn't participate in the recording session."
To support the record, Saagara scheduled a short tour in Europe. The band will play in Germany, Ukraine and Poland. "My Indian bandmates love performing in my homeland. They have always been welcomed enthusiastically here. One of the distinct features of Indian music is its positive message and maybe that's why people react spontaneously to our concerts", says Zimpel.
 
Состав

Wacław Zimpel - alto clarinet, Bb clarinet, bass clarinet, khaen
Giridhar Udupa - ghatam, konnakol, hand bass drum
Mysore N. Karthik - violin
Bharghava Halambi - khanjira, ghatam
K. Raja - thavil
.сue самодельный
00:10
347
Нет комментариев. Ваш будет первым!