Поиск

(Ethnic jazz) Amos Hoffman - Evolution - 2008, FLAC (tracks+.cue), lossless

Треклист:
Amos Hoffman - Evolution (2008) {Razdaz Records}
Jazz - Made In Israel (Каталог раздач)
Жанр: Ethnic jazz
Дата записи: 2007
Дата выпуска: March 25, 2008
Производитель диска, страна: Razdaz Records, Israel
Страна исполнителя: Israel
Тип: Studio
Аудио кодек: FLAC
Тип рипа: (tracks + .cue)
Источник: коллекция Zavit'a
Риппер: Musicgate
Трэклист:
1. Enayim 4:43
2. Exploration 5:26
3. Silence 4:30
4. Hamsa 5:44
5. Takasin Bayati 3:12
6. I Met You 3:00
7. The Wheel 3:41
8. The Journey 6:14
9. Miss T 3:46
10. Sweet Eden 5:42
Об исполнителе:
http://www.myspace.com/amoshoffman
Об альбоме:
http://blogcritics.org/archives/2008/03/25/160630.php
http://www.allaboutjazz.com/php/news.php?id=17393
http://www.allaboutjazz.com/php/article.php?id=30132
Состав:
Amos Hoffman: oud, guitar, production;
Avisahai Cohen: bass, piano, vocals;
Ilan Katchka: percussion;
Ilan Salem: alto flute
Этот же альбом в mp3 (320), сканы в jpg
Мои раздачи на треккере - jazz / fusion / prog
 
Несколько слов на английском
http://www.allaboutjazz.com/php/article.php?id=30132
By Dr. Judith Schlesinger
The oud is the principal instrument in Middle Eastern music: it's an ancient, fretless, short-necked lute with five pairs of strings and a bass string. On Evolution, his third CD as leader, Amos Hoffman plays the oud he made himself, and offers a fascinating combination of Middle Eastern music and jazz.
The Tel Aviv-based Hoffman wrote all the tunes here, providing a mix of composed and improvised music with hypnotic, sensuous, and insistent rhythms. Aside from Hoffman's soulful oud, the CD features his guitar, the warm alto flute of Ilan Salem, the intricate percussion of Ilan Katchka, strong piano, vocals, and upright bass of Avishai Cohen, who is also one of the co-founders of Razdaz Recordz, the label that released Evolution. Hoffman has played in Cohen's band for more than twenty years, and their relaxed interplay helps to warm this recording.
Only two of the tracks are slow, and one of these—the sinuous "Exploration"—has some surprising moments, including a repeating Latin groove and an electric guitar solo with a distinctly modern feel. Other highlights include the soulful "I Met You, " which seems destined for wide radio play on the more adventurous stations, the timeless oud showcase of "Takasin Bayati, " and the jazz ballad called "Miss T." But although the musicians' freedom and mutual inspiration are clearly audible, this is not your usual jazz record: instead, it's an exciting, exotic journey that evokes the swirl of sand and silk.
 
Folder content
01 - Enayim.flac
02 - Exploration.flac
03 - Silence.flac
04 - Hamsa.flac
05 - Takasin Bayati.flac
06 - I meet you.flac
07 - The Weel.flac
08 - The Jorney.flac
09 - Miss T.flac
10 - Sweet Eden.flac
Amos Hoffman - Evolution.log
Amos Hoffman - Evolution.m3u
artwork
Evolution_Noncompliant.cue
Evolution_Single Wav.cue
tau.txt
artwork\1.png
artwork\2.png
artwork\3.png
artwork\4.png
 
EAC log
Exact Audio Copy V0.99 prebeta 4 from 23. January 2008
EAC extraction logfile from 2. October 2008, 13:43
Amos Hoffman / Evolution
Used drive : PIONEER DVD-RW DVR-112D Adapter: 0 ID: 0
Read mode : Secure
Utilize accurate stream : Yes
Defeat audio cache : Yes
Make use of C2 pointers : No
Read offset correction : 48
Overread into Lead-In and Lead-Out : No
Fill up missing offset samples with silence : Yes
Delete leading and trailing silent blocks : No
Null samples used in CRC calculations : Yes
Used interface : Installed external ASPI interface
Gap handling : Appended to previous track
Used output format : User Defined Encoder
Selected bitrate : 320 kBit/s
Quality : High
Add ID3 tag : Yes
Command line compressor : C:\Program Files\Exact Audio Copy\Flac\flac.exe
Additional command line options : -V -8 -T "artist=%a" -T "title=%t" -T "album=%g" -T "date=%y" -T "tracknumber=%n" -T "genre=%m" %s
TOC of the extracted CD
Track | Start | Length | Start sector | End sector
---------------------------------------------------------
1 | 0:00.00 | 4:43.35 | 0 | 21259
2 | 4:43.35 | 5:26.45 | 21260 | 45754
3 | 10:10.05 | 4:30.45 | 45755 | 66049
4 | 14:40.50 | 5:44.30 | 66050 | 91879
5 | 20:25.05 | 3:12.15 | 91880 | 106294
6 | 23:37.20 | 3:01.09 | 106295 | 119878
7 | 26:38.29 | 3:42.48 | 119879 | 136576
8 | 30:21.02 | 6:15.15 | 136577 | 164716
9 | 36:36.17 | 3:46.23 | 164717 | 181689
10 | 40:22.40 | 5:42.30 | 181690 | 207369
Track 1
Filename D:\music\rip\Amos Hoffman - Evolution (2007) {Razdaz Records}\01 - Enayim.wav
Pre-gap length 0:00:02.00
Peak level 98.7 %
Track quality 100.0 %
Test CRC F2350E79
Copy CRC F2350E79
Track not present in AccurateRip database
Copy OK
Track 2
Filename D:\music\rip\Amos Hoffman - Evolution (2007) {Razdaz Records}\02 - Exploration.wav
Peak level 98.7 %
Track quality 100.0 %
Test CRC CD4A1D14
Copy CRC CD4A1D14
Track not present in AccurateRip database
Copy OK
Track 3
Filename D:\music\rip\Amos Hoffman - Evolution (2007) {Razdaz Records}\03 - Silence.wav
Peak level 98.7 %
Track quality 100.0 %
Test CRC F3975307
Copy CRC F3975307
Track not present in AccurateRip database
Copy OK
Track 4
Filename D:\music\rip\Amos Hoffman - Evolution (2007) {Razdaz Records}\04 - Hamsa.wav
Peak level 98.7 %
Track quality 100.0 %
Test CRC 49A728FE
Copy CRC 49A728FE
Track not present in AccurateRip database
Copy OK
Track 5
Filename D:\music\rip\Amos Hoffman - Evolution (2007) {Razdaz Records}\05 - Takasin Bayati.wav
Peak level 86.6 %
Track quality 100.0 %
Test CRC 01D2C84A
Copy CRC 01D2C84A
Track not present in AccurateRip database
Copy OK
Track 6
Filename D:\music\rip\Amos Hoffman - Evolution (2007) {Razdaz Records}\06 - I meet you.wav
Peak level 98.7 %
Track quality 100.0 %
Test CRC 5F836BC7
Copy CRC 5F836BC7
Track not present in AccurateRip database
Copy OK
Track 7
Filename D:\music\rip\Amos Hoffman - Evolution (2007) {Razdaz Records}\07 - The Weel.wav
Peak level 98.7 %
Track quality 100.0 %
Test CRC 3BEBD3BF
Copy CRC 3BEBD3BF
Track not present in AccurateRip database
Copy OK
Track 8
Filename D:\music\rip\Amos Hoffman - Evolution (2007) {Razdaz Records}\08 - The Jorney.wav
Peak level 98.7 %
Track quality 100.0 %
Test CRC 5A028390
Copy CRC 5A028390
Track not present in AccurateRip database
Copy OK
Track 9
Filename D:\music\rip\Amos Hoffman - Evolution (2007) {Razdaz Records}\09 - Miss T.wav
Peak level 94.2 %
Track quality 100.0 %
Test CRC 21FB5895
Copy CRC 21FB5895
Track not present in AccurateRip database
Copy OK
Track 10
Filename D:\music\rip\Amos Hoffman - Evolution (2007) {Razdaz Records}\10 - Sweet Eden.wav
Peak level 98.7 %
Track quality 100.0 %
Test CRC 3052E1DA
Copy CRC 3052E1DA
Track not present in AccurateRip database
Copy OK
None of the tracks are present in the AccurateRip database
No errors occurred
End of status report
 
TAU log
2716297482 50003564 01 - Enayim.wav
728113041 57612284 02 - Exploration.wav
4138521743 47733884 03 - Silence.wav
2029437558 60752204 04 - Hamsa.wav
2057159319 33904124 05 - Takasin Bayati.wav
3543071320 31949612 06 - I meet you.wav
3722075033 39273740 07 - The Weel.wav
2538587395 66185324 08 - The Jorney.wav
1572408474 39920540 09 - Miss T.wav
3872990226 60399404 10 - Sweet Eden.wav
auCDtect: CD records authenticity detector, version 0.8.2
Copyright (c) 2004 Oleg Berngardt. All rights reserved.
Copyright (c) 2004 Alexander Djourik. All rights reserved.
------------------------------------------------------------
Processing file: [01 - Enayim.wav]
------------------------------------------------------------
This track looks like CDDA with probability 100%
------------------------------------------------------------
Processing file: [02 - Exploration.wav]
------------------------------------------------------------
This track looks like CDDA with probability 100%
------------------------------------------------------------
Processing file: [03 - Silence.wav]
------------------------------------------------------------
This track looks like CDDA with probability 100%
------------------------------------------------------------
Processing file: [04 - Hamsa.wav]
------------------------------------------------------------
This track looks like CDDA with probability 99%
------------------------------------------------------------
Processing file: [05 - Takasin Bayati.wav]
------------------------------------------------------------
This track looks like CDDA with probability 100%
------------------------------------------------------------
Processing file: [06 - I meet you.wav]
------------------------------------------------------------
This track looks like CDDA with probability 100%
------------------------------------------------------------
Processing file: [07 - The Weel.wav]
------------------------------------------------------------
This track looks like CDDA with probability 100%
------------------------------------------------------------
Processing file: [08 - The Jorney.wav]
------------------------------------------------------------
This track looks like CDDA with probability 100%
------------------------------------------------------------
Processing file: [09 - Miss T.wav]
------------------------------------------------------------
This track looks like CDDA with probability 100%
------------------------------------------------------------
Processing file: [10 - Sweet Eden.wav]
------------------------------------------------------------
This track looks like CDDA with probability 100%
------------------------------------------------------------
Final Conclusion:
------------------------------------------------------------
These tracks looks like CDDA with probability 100%
Я не сидирую все свои раздачи подолгу, только новые (до 3х первых сидов)
Предлагаю скачавшим максимально долго оставаться на раздаче - весь рейтинг будет ваш
Я вернусь, если меня попросят в топике или в ПМ
03:53
403
Нет комментариев. Ваш будет первым!