Вы используете незарегистрированную версию компонента "Вкладки"!

Поиск

(ECM, Modern Creative, Avant-Garde Jazz) [CD] Bill Frisell - Selected Recordings (:rarum V) - 2002, FLAC (tracks+.cue), lossless

(ECM, Modern Creative, Avant-Garde Jazz) [CD] Bill Frisell - Selected Recordings (:rarum V) - 2002, FLAC (tracks+.cue), lossless
Треклист:
Bill Frisell - Selected Recordings (:rarum V) Жанр: Modern Creative, Avant-Garde Jazz
Носитель: CD
Год издания: 2002
Издатель (лейбл): ECM
Номер по каталогу: 014 198-2
Аудиокодек: FLAC (*.flac)
Тип рипа: tracks+.cue
Битрейт аудио: lossless
Продолжительность: 76:37
Rip by jlgt
Наличие сканов в содержимом раздачи: да
Треклист:
01. Mandeville (5:10)
02. Introduction (3:03)
03. India (7:25)
04. Singsong (4:22)
05. In Line (4:36)
06. Resistor (5:47)
07. Music I Heard (4:49)
08. Tone (8:05)
09. Lonesome (4:41)
10. Alien Prints (6:29)
11. Hangdog (2:29)
12. Kind Of Gentle (4:45)
13. Closer (5:01)
14. Sub Rosa (9:55)
Recordings 1982-1997.
 
 
Лог создания рипа
Exact Audio Copy V1.0 beta 3 from 29. August 2011
EAC extraction logfile from 3. August 2013, 3:23
Bill Frisell / Selected Recordings [ECM 014 198-2 Rarum V]
Used drive : PLEXTOR DVDR PX-891SA Adapter: 4 ID: 1
Read mode : Secure
Utilize accurate stream : Yes
Defeat audio cache : Yes
Make use of C2 pointers : No
Read offset correction : 6
Overread into Lead-In and Lead-Out : No
Fill up missing offset samples with silence : Yes
Delete leading and trailing silent blocks : No
Null samples used in CRC calculations : Yes
Used interface : Native Win32 interface for Win NT & 2000
Gap handling : Appended to previous track
Used output format : User Defined Encoder
Selected bitrate : 256 kBit/s
Quality : High
Add ID3 tag : No
Command line compressor : C:\Archivos de programa\Exact Audio Copy\FLAC\FLAC.EXE
Additional command line options : -8 -V -T "ARTIST=%artist%" -T "TITLE=%title%" -T "ALBUM=%albumtitle%" -T "DATE=%year%" -T "TRACKNUMBER=%tracknr%" -T "TOTALTRACKS=%numtracks%" -T "GENRE=%genre%" -T "ALBUMARTIST=%albumartist%" -T "ALBUM ARTIST=%albumartist%" -T "COMMENT=EAC Secure Mode, Test & Copy, AccurateRip, FLAC -8" %source%
TOC of the extracted CD
Track | Start | Length | Start sector | End sector
---------------------------------------------------------
1 | 0:00.00 | 5:10.31 | 0 | 23280
2 | 5:10.31 | 3:02.43 | 23281 | 36973
3 | 8:12.74 | 7:25.03 | 36974 | 70351
4 | 15:38.02 | 4:22.03 | 70352 | 90004
5 | 20:00.05 | 4:35.58 | 90005 | 110687
6 | 24:35.63 | 5:47.23 | 110688 | 136735
7 | 30:23.11 | 4:49.31 | 136736 | 158441
8 | 35:12.42 | 8:04.47 | 158442 | 194788
9 | 43:17.14 | 4:40.68 | 194789 | 215856
10 | 47:58.07 | 6:29.36 | 215857 | 245067
11 | 54:27.43 | 2:28.53 | 245068 | 256220
12 | 56:56.21 | 4:44.66 | 256221 | 277586
13 | 61:41.12 | 5:01.01 | 277587 | 300162
14 | 66:42.13 | 9:54.55 | 300163 | 344767
Track 1
Filename D:\flac rips\01 - Mandeville.wav
Pre-gap length 0:00:02.00
Peak level 77.3 %
Extraction speed 5.3 X
Track quality 99.9 %
Test CRC 0DCCDE64
Copy CRC 0DCCDE64
Accurately ripped (confidence 13) [983F267D] (AR v2)
Copy OK
Track 2
Filename D:\flac rips\02 - Introduction.wav
Pre-gap length 0:00:01.37
Peak level 38.6 %
Extraction speed 4.7 X
Track quality 99.9 %
Test CRC 5A7C4124
Copy CRC 5A7C4124
Accurately ripped (confidence 13) [A3C4AE51] (AR v2)
Copy OK
Track 3
Filename D:\flac rips\03 - India.wav
Pre-gap length 0:00:02.29
Peak level 99.9 %
Extraction speed 7.7 X
Track quality 100.0 %
Test CRC BBF06D5A
Copy CRC BBF06D5A
Accurately ripped (confidence 13) [B5D8186D] (AR v2)
Copy OK
Track 4
Filename D:\flac rips\04 - Singsong.wav
Pre-gap length 0:00:03.44
Peak level 86.7 %
Extraction speed 7.9 X
Track quality 100.0 %
Test CRC EBE31F45
Copy CRC EBE31F45
Accurately ripped (confidence 13) [33CF4D00] (AR v2)
Copy OK
Track 5
Filename D:\flac rips\05 - In Line.wav
Pre-gap length 0:00:05.10
Peak level 90.0 %
Extraction speed 8.5 X
Track quality 100.0 %
Test CRC B5FE052F
Copy CRC B5FE052F
Accurately ripped (confidence 14) [0A2BCAE3] (AR v2)
Copy OK
Track 6
Filename D:\flac rips\06 - Resistor.wav
Pre-gap length 0:00:03.44
Peak level 89.1 %
Extraction speed 9.2 X
Track quality 100.0 %
Test CRC D9758E01
Copy CRC D9758E01
Accurately ripped (confidence 13) [3DDD9858] (AR v2)
Copy OK
Track 7
Filename D:\flac rips\07 - Music I Heard.wav
Pre-gap length 0:00:03.44
Peak level 71.9 %
Extraction speed 9.5 X
Track quality 100.0 %
Test CRC FD5AE987
Copy CRC FD5AE987
Accurately ripped (confidence 13) [14216847] (AR v2)
Copy OK
Track 8
Filename D:\flac rips\08 - Tone.wav
Pre-gap length 0:00:04.44
Peak level 69.2 %
Extraction speed 10.5 X
Track quality 100.0 %
Test CRC EA754C01
Copy CRC EA754C01
Accurately ripped (confidence 13) [8D1397EA] (AR v2)
Copy OK
Track 9
Filename D:\flac rips\09 - Lonesome.wav
Pre-gap length 0:00:03.44
Peak level 75.8 %
Extraction speed 10.5 X
Track quality 100.0 %
Test CRC DCB45DB9
Copy CRC DCB45DB9
Accurately ripped (confidence 13) [55A09070] (AR v2)
Copy OK
Track 10
Filename D:\flac rips\10 - Alien Prints.wav
Pre-gap length 0:00:03.44
Peak level 69.2 %
Extraction speed 11.3 X
Track quality 100.0 %
Test CRC E289F32A
Copy CRC E289F32A
Accurately ripped (confidence 13) [AEAB5819] (AR v2)
Copy OK
Track 11
Filename D:\flac rips\11 - Hangdog.wav
Pre-gap length 0:00:01.49
Peak level 73.4 %
Extraction speed 7.6 X
Track quality 99.9 %
Test CRC 5D3A8D2B
Copy CRC 5D3A8D2B
Accurately ripped (confidence 13) [09950B22] (AR v2)
Copy OK
Track 12
Filename D:\flac rips\12 - Kind Of Gentle.wav
Pre-gap length 0:00:04.51
Peak level 84.7 %
Extraction speed 9.7 X
Track quality 99.9 %
Test CRC 0069E6CD
Copy CRC 0069E6CD
Accurately ripped (confidence 13) [0FB75D08] (AR v2)
Copy OK
Track 13
Filename D:\flac rips\13 - Closer.wav
Pre-gap length 0:00:03.44
Peak level 95.5 %
Extraction speed 12.0 X
Track quality 100.0 %
Test CRC AA7D4280
Copy CRC AA7D4280
Accurately ripped (confidence 13) [299BAD48] (AR v2)
Copy OK
Track 14
Filename D:\flac rips\14 - Sub Rosa.wav
Pre-gap length 0:00:00.55
Peak level 88.1 %
Extraction speed 13.2 X
Track quality 100.0 %
Test CRC 99A4BCE3
Copy CRC 99A4BCE3
Accurately ripped (confidence 13) [9F46EEB2] (AR v2)
Copy OK
All tracks accurately ripped
No errors occurred
End of status report
==== Log checksum 8A52BD164402789C47F53C89CC6A02404343A4E48F3D54DE773A193D59E6EA1C ====
 
Содержание индексной карты (.CUE)
REM GENRE Jazz
REM DATE 2002
REM DISCID BA11F40E
REM COMMENT "ExactAudioCopy v1.0b3"
PERFORMER "Bill Frisell"
TITLE "Selected Recordings [ECM 014 198-2 Rarum V]"
FILE "01 - Mandeville.wav" WAVE
TRACK 01 AUDIO
TITLE "Mandeville"
PERFORMER "Bill Frisell"
INDEX 01 00:00:00
TRACK 02 AUDIO
TITLE "Introduction"
PERFORMER "Bill Frisell"
INDEX 00 05:08:69
FILE "02 - Introduction.wav" WAVE
INDEX 01 00:00:00
TRACK 03 AUDIO
TITLE "India"
PERFORMER "Bill Frisell"
INDEX 00 03:00:14
FILE "03 - India.wav" WAVE
INDEX 01 00:00:00
TRACK 04 AUDIO
TITLE "Singsong"
PERFORMER "Bill Frisell"
INDEX 00 07:21:34
FILE "04 - Singsong.wav" WAVE
INDEX 01 00:00:00
TRACK 05 AUDIO
TITLE "In Line"
PERFORMER "Bill Frisell"
INDEX 00 04:16:68
FILE "05 - In Line.wav" WAVE
INDEX 01 00:00:00
TRACK 06 AUDIO
TITLE "Resistor"
PERFORMER "Bill Frisell"
INDEX 00 04:32:14
FILE "06 - Resistor.wav" WAVE
INDEX 01 00:00:00
TRACK 07 AUDIO
TITLE "Music I Heard"
PERFORMER "Bill Frisell"
INDEX 00 05:43:54
FILE "07 - Music I Heard.wav" WAVE
INDEX 01 00:00:00
TRACK 08 AUDIO
TITLE "Tone"
PERFORMER "Bill Frisell"
INDEX 00 04:44:62
FILE "08 - Tone.wav" WAVE
INDEX 01 00:00:00
TRACK 09 AUDIO
TITLE "Lonesome"
PERFORMER "Bill Frisell"
INDEX 00 08:01:03
FILE "09 - Lonesome.wav" WAVE
INDEX 01 00:00:00
TRACK 10 AUDIO
TITLE "Alien Prints"
PERFORMER "Bill Frisell"
INDEX 00 04:37:24
FILE "10 - Alien Prints.wav" WAVE
INDEX 01 00:00:00
TRACK 11 AUDIO
TITLE "Hangdog"
PERFORMER "Bill Frisell"
INDEX 00 06:27:62
FILE "11 - Hangdog.wav" WAVE
INDEX 01 00:00:00
TRACK 12 AUDIO
TITLE "Kind Of Gentle"
PERFORMER "Bill Frisell"
INDEX 00 02:24:02
FILE "12 - Kind Of Gentle.wav" WAVE
INDEX 01 00:00:00
TRACK 13 AUDIO
TITLE "Closer"
PERFORMER "Bill Frisell"
INDEX 00 04:41:22
FILE "13 - Closer.wav" WAVE
INDEX 01 00:00:00
TRACK 14 AUDIO
TITLE "Sub Rosa"
PERFORMER "Bill Frisell"
INDEX 00 05:00:21
FILE "14 - Sub Rosa.wav" WAVE
INDEX 01 00:00:00
По всем вопросам пишите личное сообщение пользователю M0p94ok.
19:00
239
Нет комментариев. Ваш будет первым!