Поиск

(Dub, Free Funk, Ethno-Fusion) Material - Seven Souls - 1989, FLAC (tracks+.cue), lossless

Треклист:
Material / Seven Souls
Жанр: Dub, Free Funk, Ethno-Fusion
Страна-производитель диска: US
Год издания диска: 1997
Издатель (лейбл): Worldly Triloka
Номер по каталогу: 314 534 905-2
Страна: US
Аудиокодек: FLAC (*.flac)
Тип рипа: tracks+.cue
Битрейт аудио: lossless
Продолжительность: 63:32
Источник (релизер): свой фирменный диск
Наличие сканов в содержимом раздачи: да
Треклист:
BONUS TRACKS:
1 The Western Land (A Dangerous Road Mix) 8:31
2 Seven Souls (Tim Simenon Mix) 7:06
3 Soul Killer (Remote Control Mix by Terre Thaemlitz) 8:15
ORIGINAL ALBUM:
4 Ineffect 7:32
5 Seven Souls 5:44
6 Soul Killer 4:32
7 The Western Lands 6:16
8 Deliver 5:50
9 Equation 5:06
10 The End of Words 4:11
 
Лог создания рипа
Exact Audio Copy V1.0 beta 2 from 29. April 2011
EAC extraction logfile from 11. September 2011, 16:15
Material / Seven Souls
Used drive : PIONEER DVD-RW DVR-115D Adapter: 0 ID: 0
Read mode : Secure
Utilize accurate stream : Yes
Defeat audio cache : Yes
Make use of C2 pointers : No
Read offset correction : 48
Overread into Lead-In and Lead-Out : No
Fill up missing offset samples with silence : Yes
Delete leading and trailing silent blocks : No
Null samples used in CRC calculations : Yes
Used interface : Installed external ASPI interface
Gap handling : Appended to previous track
Used output format : User Defined Encoder
Selected bitrate : 768 kBit/s
Quality : High
Add ID3 tag : Yes
Command line compressor : C:\Program Files\Exact Audio Copy\FLAC\FLAC.EXE
Additional command line options : -6 -V -T "ARTIST=%artist%" -T "TITLE=%title%" -T "ALBUM=%albumtitle%" -T "DATE=%year%" -T "TRACKNUMBER=%tracknr%" -T "GENRE=%genre%" -T "COMMENT=%comment%" -T "BAND=%albuminterpret%" -T "COMPOSER=%composer%" %haslyrics%--ta
TOC of the extracted CD
Track | Start | Length | Start sector | End sector
---------------------------------------------------------
1 | 0:00.00 | 8:34.63 | 0 | 38612
2 | 8:34.63 | 7:10.14 | 38613 | 70876
3 | 15:45.02 | 8:16.62 | 70877 | 108138
4 | 24:01.64 | 7:34.15 | 108139 | 142203
5 | 31:36.04 | 5:45.34 | 142204 | 168112
6 | 37:21.38 | 4:33.40 | 168113 | 188627
7 | 41:55.03 | 6:17.12 | 188628 | 216914
8 | 48:12.15 | 5:52.45 | 216915 | 243359
9 | 54:04.60 | 5:07.04 | 243360 | 266388
10 | 59:11.64 | 4:20.11 | 266389 | 285899
Track 1
Filename D:\zzz\01 - The Western Lands (a dangerous road mix).wav
Pre-gap length 0:00:02.00
Peak level 100.0 %
Extraction speed 5.4 X
Track quality 100.0 %
Test CRC 3F3B7D90
Copy CRC 3F3B7D90
Track not present in AccurateRip database
Copy OK
Track 2
Filename D:\zzz\02 - Seven Souls (Tim Simenon mix).wav
Peak level 100.0 %
Extraction speed 6.2 X
Track quality 100.0 %
Test CRC AD05F4CF
Copy CRC AD05F4CF
Track not present in AccurateRip database
Copy OK
Track 3
Filename D:\zzz\03 - Soul Killer (remote control mix).wav
Peak level 100.0 %
Extraction speed 7.0 X
Track quality 100.0 %
Test CRC C8120647
Copy CRC C8120647
Track not present in AccurateRip database
Copy OK
Track 4
Filename D:\zzz\04 - Ineffect.wav
Peak level 100.0 %
Extraction speed 7.5 X
Track quality 100.0 %
Test CRC 5E92877C
Copy CRC 5E92877C
Track not present in AccurateRip database
Copy OK
Track 5
Filename D:\zzz\05 - Seven Souls.wav
Peak level 100.0 %
Extraction speed 7.8 X
Track quality 100.0 %
Test CRC 2B916C3D
Copy CRC 2B916C3D
Track not present in AccurateRip database
Copy OK
Track 6
Filename D:\zzz\06 - Soul Killer.wav
Peak level 97.7 %
Extraction speed 7.1 X
Track quality 99.9 %
Test CRC EF1806B3
Copy CRC EF1806B3
Track not present in AccurateRip database
Copy OK
Track 7
Filename D:\zzz\07 - The Western Lands.wav
Peak level 99.1 %
Extraction speed 7.9 X
Track quality 99.9 %
Test CRC 9DAC37A6
Copy CRC 9DAC37A6
Track not present in AccurateRip database
Copy OK
Track 8
Filename D:\zzz\08 - Deliver.wav
Peak level 100.0 %
Extraction speed 8.8 X
Track quality 100.0 %
Test CRC C5794D24
Copy CRC C5794D24
Track not present in AccurateRip database
Copy OK
Track 9
Filename D:\zzz\09 - Equation.wav
Peak level 100.0 %
Extraction speed 8.1 X
Track quality 99.9 %
Test CRC 1DC7FE11
Copy CRC 1DC7FE11
Track not present in AccurateRip database
Copy OK
Track 10
Filename D:\zzz\10 - The End of Words.wav
Peak level 94.9 %
Extraction speed 9.0 X
Track quality 100.0 %
Test CRC CFEC907A
Copy CRC CFEC907A
Track not present in AccurateRip database
Copy OK
None of the tracks are present in the AccurateRip database
No errors occurred
End of status report
==== Log checksum A0549DB6A3E0EF775C973D1CD261B7F1B8ACD0919680DFCB55F00D10A6B9D085 ====
 
Содержание индексной карты (.CUE)
REM GENRE Avantgarde
REM DATE 1989
REM DISCID 980EE40A
REM COMMENT "ExactAudioCopy v1.0b2"
PERFORMER "Material"
TITLE "Seven Souls"
FILE "01 - The Western Lands (a dangerous road mix).wav" WAVE
TRACK 01 AUDIO
TITLE "The Western Lands (a dangerous road mix)"
PERFORMER "Material"
INDEX 01 00:00:00
FILE "02 - Seven Souls (Tim Simenon mix).wav" WAVE
TRACK 02 AUDIO
TITLE "Seven Souls (Tim Simenon mix)"
PERFORMER "Material"
INDEX 01 00:00:00
FILE "03 - Soul Killer (remote control mix).wav" WAVE
TRACK 03 AUDIO
TITLE "Soul Killer (remote control mix)"
PERFORMER "Material"
INDEX 01 00:00:00
FILE "04 - Ineffect.wav" WAVE
TRACK 04 AUDIO
TITLE "Ineffect"
PERFORMER "Material"
INDEX 01 00:00:00
FILE "05 - Seven Souls.wav" WAVE
TRACK 05 AUDIO
TITLE "Seven Souls"
PERFORMER "Material"
INDEX 01 00:00:00
FILE "06 - Soul Killer.wav" WAVE
TRACK 06 AUDIO
TITLE "Soul Killer"
PERFORMER "Material"
INDEX 01 00:00:00
FILE "07 - The Western Lands.wav" WAVE
TRACK 07 AUDIO
TITLE "The Western Lands"
PERFORMER "Material"
INDEX 01 00:00:00
FILE "08 - Deliver.wav" WAVE
TRACK 08 AUDIO
TITLE "Deliver"
PERFORMER "Material"
INDEX 01 00:00:00
FILE "09 - Equation.wav" WAVE
TRACK 09 AUDIO
TITLE "Equation"
PERFORMER "Material"
INDEX 01 00:00:00
FILE "10 - The End of Words.wav" WAVE
TRACK 10 AUDIO
TITLE "The End of Words"
PERFORMER "Material"
INDEX 01 00:00:00
 
Лог проверки качества
d:\>d:\aucdtect -d/-m0 d:\zzz\*.wav
auCDtect: CD records authenticity detector, version 0.8.2
Copyright (c) 2004 Oleg Berngardt. All rights reserved.
Copyright (c) 2004 Alexander Djourik. All rights reserved.
------------------------------------------------------------
Processing file: [01. The Western Lands (a dangerous road mix).wav]
------------------------------------------------------------
This track looks like CDDA with probability 100%
------------------------------------------------------------
Processing file: [02. Seven Souls (Tim Simenon mix).wav]
------------------------------------------------------------
This track looks like CDDA with probability 100%
------------------------------------------------------------
Processing file: [03. Soul Killer (remote control mix).wav]
------------------------------------------------------------
This track looks like CDDA with probability 100%
------------------------------------------------------------
Processing file: [04. Ineffect.wav]
------------------------------------------------------------
This track looks like CDDA with probability 100%
------------------------------------------------------------
Processing file: [05. Seven Souls.wav]
------------------------------------------------------------
This track looks like CDDA with probability 100%
------------------------------------------------------------
Processing file: [06. Soul Killer.wav]
------------------------------------------------------------
This track looks like CDDA with probability 100%
------------------------------------------------------------
Processing file: [07. The Western Lands.wav]
------------------------------------------------------------
This track looks like CDDA with probability 100%
------------------------------------------------------------
Processing file: [08. Deliver.wav]
------------------------------------------------------------
This track looks like CDDA with probability 100%
------------------------------------------------------------
Processing file: [09. Equation.wav]
------------------------------------------------------------
This track looks like CDDA with probability 100%
------------------------------------------------------------
Processing file: [10. The End of Words.wav]
------------------------------------------------------------
This track looks like CDDA with probability 100%
------------------------------------------------------------
Final Conclusion:
------------------------------------------------------------
These tracks looks like CDDA with probability 100%
Доп. информация: При граблении EAC почему-то не соединился с AR-базой, из-за чего в логе рип получился вроде как неаккуратный. Даю лог CUETools.
 
CUETools Log
[CUETools log; Date: 11.09.2011 16:18:03; Version: 2.1.2a]
[CTDB TOCID: 7pabGYtH_zN_Q1Q2qG3cDgfNBMw-] disk not present in database.
[AccurateRip ID: 001a6272-00cdf21a-980ee40a] found.
Track [ CRC ] Status
01 [5d969b68] (13/13) Accurately ripped
02 [242fb696] (13/13) Accurately ripped
03 [31ffab83] (13/13) Accurately ripped
04 [1e5e6e2d] (13/13) Accurately ripped
05 [77e8bc2e] (13/13) Accurately ripped
06 [a5242ceb] (13/13) Accurately ripped
07 [e880adfd] (13/13) Accurately ripped
08 [582791c5] (13/13) Accurately ripped
09 [fbd5d988] (13/13) Accurately ripped
10 [c456b7d7] (11/11) Accurately ripped
Track Peak [ CRC32 ] [W/O NULL] [ LOG ]
-- 100,0 [4867F3C3] [9165559A]
01 100,0 [3F3B7D90] [7C292B2B] CRC32
02 100,0 [AD05F4CF] [D8D93624] CRC32
03 100,0 [C8120647] [16B861A8] CRC32
04 100,0 [5E92877C] [FED52997] CRC32
05 100,0 [2B916C3D] [BEA8B70D] CRC32
06 97,7 [EF1806B3] [290BC5A0] CRC32
07 99,1 [9DAC37A6] [2CF8D388] CRC32
08 100,0 [C5794D24] [6CAC0FA1] CRC32
09 100,0 [1DC7FE11] [EB2E5E56] CRC32
10 94,9 [CFEC907A] [5832AC9E] CRC32
 
Album & CD Info
Tracks 4 to 10 were originally released in 1989 as "Seven Souls" LP/CD.
Recorded at Platinum Island, NYC and at B.C. Studio.
Mastered at Masterdisk. Remastered at Greenpoint.
Special thanks: David Silver, Mitchell Markus, KD Kagel, Jonas Herbsman, Peter Shukat.
(C)(P)1997 Triloka Records, manufactured and marketed by Mercury Records, a PolyGram company. Printed in U.S.A.
CD Matrix Lettering: 314 534 905-2 01% MADE IN USA BY PMDC IFPI L007
 
Состав
Bill Laswell, William S. Burroughs, Rammellzee, Foday Musa Suso, Fahiem Dandan, Nicky Skopelitis, Simon Shaheen, Shankar, Jeff Bova, Sly Dunbar, Aiyb Dieng
23:06
242
Нет комментариев. Ваш будет первым!