Поиск

(Big Band, Flamenco) Perico Sambeat - Flamenco Big Band - 2008, FLAC (tracks+.cue), lossless

Треклист:
Perico Sambeat - Flamenco Big Band
Жанр: Big Band, Flamenco
Год издания диска: 2008
Издатель (лейбл): Universal / Verve
Номер по каталогу: 0602517808294
Страна: Spain
Аудиокодек: FLAC (*.flac)
Тип рипа: tracks+.cue
Битрейт аудио: lossless
Продолжительность: 01:10:14
Источник (релизер): jlgt
Наличие сканов в содержимом раздачи: да
Треклист:
1- Cauce (martinete, soleá por bulerías, bulerías)
2- Nido del aire (nana)
3- Olhaíl - luz del sur (tanguillos)
4- Nocturno
5- Tio Petila (bulerías)
6- Soledad Sonora (soleá)
-soleá de Morobio
-contraluz
-paseo de las adelfas
7- Como lo oyes (bulerías)
8- Guajira para Duke (guajira)

Perico Sambeat: Alto and soprano saxophones, flute, conducter
Javier Colina: contrabass
Marc Miralta: drums
Albert Sanz: piano
Miguel Poveda: voice
Gerardo Nuñez: guitar
Angel Sanchez "Cepillo" : cajón, claps, jaleos
Carmen Cortés: claps, shoes
Iván Albuixech: alto sax, clarinet
Ernesto Aurignac: alto sax
Jesús Santandreu: tenor sax
Vicente Macián: tenor and soprano sax
Francisco Blanco "Latino": barítone sax, flute, bass clarinet
Mike Mossman: trumpet, flluguelhorn
David Pastor: trumpet, flluguelhorn
Paul Evans: trumpet, flluguelhorn
Voro García: trumpet, flluguelhorn
Barnaby Dickinson: trombone
Toni Belenguer: trombone
Vicent Perez: trombone
Dani Perpiñán: trombone
Bernardo Sassetti: piano in "Nido del Aire"
Mariano Diaz: piano in "Olhaíl"
 
Soloists:
1- Sambeat, Mossman, Nuñez
2- Sassetti, Sambeat (soprano sax)
3- Macián, Diaz, Poveda
4- Sambeat (flute), Sanz, Nuñez
5- Belenguer, Pastor, Santandreu
6- Colina, Sambeat (soprano sax), Sanz, Cortés
7- Sambeat, Dickinson, Cepillo, Miralta
8- Sambeat, Colina
All the music written, arranged and conducted by Perico Sambeat

 
Лог создания рипа
Exact Audio Copy V1.0 beta 1 from 15. November 2010
EAC extraction logfile from 6. May 2011, 23:07
Perico Sambeat / Flamenco Big Band
Used drive : HL-DT-STDVD-RAM GH22LP20 Adapter: 5 ID: 0
Read mode : Secure
Utilize accurate stream : Yes
Defeat audio cache : Yes
Make use of C2 pointers : No
Read offset correction : 102
Overread into Lead-In and Lead-Out : No
Fill up missing offset samples with silence : Yes
Delete leading and trailing silent blocks : No
Null samples used in CRC calculations : Yes
Used interface : Native Win32 interface for Win NT & 2000
Gap handling : Appended to previous track
Used output format : User Defined Encoder
Selected bitrate : 768 kBit/s
Quality : High
Add ID3 tag : No
Command line compressor : C:\Archivos de programa\Exact Audio Copy\FLAC\FLAC.EXE
Additional command line options : -8 -V -T "ARTIST=%a" -T "TITLE=%t" -T "ALBUM=%g" -T "DATE=%y" -T "TRACKNUMBER=%n" -T "TOTALTRACKS=%x" -T "GENRE=%m" -T "ALBUMARTIST=%v" -T "ALBUM ARTIST=%v" -T "COMMENT=EAC Secure Mode, Test & Copy, AccurateRip, FLAC -8" %s
TOC of the extracted CD
Track | Start | Length | Start sector | End sector
---------------------------------------------------------
1 | 0:00.00 | 10:01.42 | 0 | 45116
2 | 10:01.42 | 8:03.25 | 45117 | 81366
3 | 18:04.67 | 8:07.32 | 81367 | 117923
4 | 26:12.24 | 7:59.30 | 117924 | 153878
5 | 34:11.54 | 7:58.70 | 153879 | 189798
6 | 42:10.49 | 13:37.15 | 189799 | 251088
7 | 55:47.64 | 7:45.53 | 251089 | 286016
8 | 63:33.42 | 6:40.70 | 286017 | 316086
Track 1
Filename D:\flac rips\01 - Cauce.wav
Pre-gap length 0:00:02.00
Peak level 98.8 %
Extraction speed 2.1 X
Track quality 100.0 %
Test CRC 16F82B77
Copy CRC 16F82B77
Accurately ripped (confidence 1) [D4D2B29F]
Copy OK
Track 2
Filename D:\flac rips\02 - Nido del Aire.wav
Peak level 97.7 %
Extraction speed 2.4 X
Track quality 100.0 %
Test CRC C54F5D30
Copy CRC C54F5D30
Accurately ripped (confidence 1) [731A8450]
Copy OK
Track 3
Filename D:\flac rips\03 - Olhail.wav
Peak level 97.7 %
Extraction speed 2.7 X
Track quality 100.0 %
Test CRC 9AFDD41E
Copy CRC 9AFDD41E
Accurately ripped (confidence 1) [958691AD]
Copy OK
Track 4
Filename D:\flac rips\04 - Nocturno.wav
Peak level 97.7 %
Extraction speed 2.9 X
Track quality 100.0 %
Test CRC 356EB546
Copy CRC 356EB546
Accurately ripped (confidence 1) [BE762577]
Copy OK
Track 5
Filename D:\flac rips\05 - Tio Petila.wav
Peak level 100.0 %
Extraction speed 3.2 X
Track quality 100.0 %
Test CRC 2811DDA3
Copy CRC 2811DDA3
Accurately ripped (confidence 1) [46EE1702]
Copy OK
Track 6
Filename D:\flac rips\06 - Soledad Sonora.wav
Peak level 97.7 %
Extraction speed 3.4 X
Track quality 99.9 %
Test CRC A650253A
Copy CRC A650253A
Accurately ripped (confidence 1) [17610F55]
Copy OK
Track 7
Filename D:\flac rips\07 - Como Lo Oyes.wav
Peak level 100.0 %
Extraction speed 3.7 X
Track quality 100.0 %
Test CRC 3546F3D6
Copy CRC 3546F3D6
Accurately ripped (confidence 1) [BB4D62D6]
Copy OK
Track 8
Filename D:\flac rips\08 - Guajira Para Duke.wav
Peak level 97.7 %
Extraction speed 3.9 X
Track quality 100.0 %
Test CRC B80FE120
Copy CRC B80FE120
Accurately ripped (confidence 1) [D9FE9E0A]
Copy OK
All tracks accurately ripped
No errors occurred
End of status report
==== Log checksum B59F36BCB2952545E3B755BABEAEB3FB57DB47298CD2D0A49BA7FFC5E8689DD9 ====
 
Содержание индексной карты (.CUE)
REM GENRE Jazz
REM DATE 2008
REM DISCID 65107608
REM COMMENT "ExactAudioCopy v1.0b1"
PERFORMER "Perico Sambeat "
TITLE "Flamenco Big Band"
FILE "01 - Cauce.wav" WAVE
TRACK 01 AUDIO
TITLE "Cauce"
PERFORMER "Perico Sambeat "
INDEX 01 00:00:00
FILE "02 - Nido del Aire.wav" WAVE
TRACK 02 AUDIO
TITLE "Nido del Aire"
PERFORMER "Perico Sambeat "
INDEX 01 00:00:00
FILE "03 - Olhail.wav" WAVE
TRACK 03 AUDIO
TITLE "Olhail"
PERFORMER "Perico Sambeat "
INDEX 01 00:00:00
FILE "04 - Nocturno.wav" WAVE
TRACK 04 AUDIO
TITLE "Nocturno"
PERFORMER "Perico Sambeat "
INDEX 01 00:00:00
FILE "05 - Tio Petila.wav" WAVE
TRACK 05 AUDIO
TITLE "Tio Petila"
PERFORMER "Perico Sambeat "
INDEX 01 00:00:00
FILE "06 - Soledad Sonora.wav" WAVE
TRACK 06 AUDIO
TITLE "Soledad Sonora"
PERFORMER "Perico Sambeat "
INDEX 01 00:00:00
FILE "07 - Como Lo Oyes.wav" WAVE
TRACK 07 AUDIO
TITLE "Como Lo Oyes"
PERFORMER "Perico Sambeat "
INDEX 01 00:00:00
FILE "08 - Guajira Para Duke.wav" WAVE
TRACK 08 AUDIO
TITLE "Guajira Para Duke"
PERFORMER "Perico Sambeat "
INDEX 01 00:00:00


другие альбомы на трекере
00:07
353
Нет комментариев. Ваш будет первым!