Поиск

(downtempo, bossa nova, soul jazz) The Five Corners Quintet - The Helsinki Sessions - 2011, FLAC (tracks+.cue), lossless

Треклист:
The Five Corners Quintet - The Helsinki Sessions
Жанр: downtempo, bossa nova, soul jazz
Год издания: 2011
Издатель (лейбл): Ricky-Tick Records
Номер по каталогу: RTCD021
Страна: Suomi
Аудиокодек: FLAC (*.flac)
Тип рипа: tracks+.cue
Битрейт аудио: lossless
Продолжительность: 01:06:06
Источник (релизер): outlander
Наличие сканов в содержимом раздачи: нет
Треклист:
01. Trading Eights
02. Hot Rod
03. Unsquare Bossa
04. Midnight in Trieste
05. Skinny Dipping
06. Three Corners
07. Shake it

Drums – Teppo Mäkynen
Piano – Mikael Jokobsson
Tenor Sax – Timo Lassy
Trumpet, Flugelhorn – Jukka Eskola
Antti Lötjönen - Bass
 
Лог создания рипа
X Lossless Decoder version 20120226 (139.1)
XLD extraction logfile from 2012-04-02 19:16:01 +0000
The Five Corners Quintet / The Helsinki Sessions
Used drive : OPTIARC DVD RW AD-7170A (revision 1.NC)
Ripper mode : XLD Secure Ripper
Disable audio cache : OK for the drive with a cache less than 1375KiB
Make use of C2 pointers : NO
Read offset correction : 48
Max retry count : 20
Gap status : Analyzed, Appended (except HTOA)
TOC of the extracted CD
Track | Start | Length | Start sector | End sector
---------------------------------------------------------
1 | 00:00:00 | 07:10:11 | 0 | 32260
2 | 07:10:11 | 11:50:28 | 32261 | 85538
3 | 19:00:39 | 11:29:23 | 85539 | 137236
4 | 30:29:62 | 06:36:61 | 137237 | 166997
5 | 37:06:48 | 11:42:36 | 166998 | 219683
6 | 48:49:09 | 04:56:61 | 219684 | 241944
7 | 53:45:70 | 12:20:54 | 241945 | 297498
AccurateRip Summary
Track 01 : OK (confidence 2)
Track 02 : OK (confidence 2)
Track 03 : OK (confidence 2)
Track 04 : OK (confidence 2)
Track 05 : OK (confidence 2)
Track 06 : OK (confidence 2)
Track 07 : OK (confidence 2)
->All tracks accurately ripped.
All Tracks
Album gain : -9.03 dB
Peak : 0.977509
Statistics
Read error : 0
Jitter error (maybe fixed) : 0
Retry sector count : 0
Damaged sector count : 0
Track 01
Filename : /Volumes/Data/Tavaraa/The Five Corners Quintet - The Helsinki Sessions (2011) - FLAC/01 - Trading Eights.flac
Pre-gap length : 00:02:00
Track gain : -8.73 dB
Peak : 0.972473
CRC32 hash (test run) : 7745008D
CRC32 hash : 7745008D
CRC32 hash (skip zero) : C5256093
AccurateRip signature : 8CA7586D
->Accurately ripped! (confidence 2)
Statistics
Read error : 0
Jitter error (maybe fixed) : 0
Retry sector count : 0
Damaged sector count : 0
Track 02
Filename : /Volumes/Data/Tavaraa/The Five Corners Quintet - The Helsinki Sessions (2011) - FLAC/02 - Hot Rod.flac
Track gain : -8.86 dB
Peak : 0.973206
CRC32 hash (test run) : 31833819
CRC32 hash : 31833819
CRC32 hash (skip zero) : 19A8B3E1
AccurateRip signature : C7D5EFFE
->Accurately ripped! (confidence 2)
Statistics
Read error : 0
Jitter error (maybe fixed) : 0
Retry sector count : 0
Damaged sector count : 0
Track 03
Filename : /Volumes/Data/Tavaraa/The Five Corners Quintet - The Helsinki Sessions (2011) - FLAC/03 - Unsquare Bossa.flac
Track gain : -8.58 dB
Peak : 0.977386
CRC32 hash (test run) : 3F220895
CRC32 hash : 3F220895
CRC32 hash (skip zero) : 71E1113A
AccurateRip signature : CEF94CA4
->Accurately ripped! (confidence 2)
Statistics
Read error : 0
Jitter error (maybe fixed) : 0
Retry sector count : 0
Damaged sector count : 0
Track 04
Filename : /Volumes/Data/Tavaraa/The Five Corners Quintet - The Helsinki Sessions (2011) - FLAC/04 - Midnight In Trieste.flac
Track gain : -9.30 dB
Peak : 0.972900
CRC32 hash (test run) : A29F0DFA
CRC32 hash : A29F0DFA
CRC32 hash (skip zero) : CDA52AED
AccurateRip signature : 0A2738AA
->Accurately ripped! (confidence 2)
Statistics
Read error : 0
Jitter error (maybe fixed) : 0
Retry sector count : 0
Damaged sector count : 0
Track 05
Filename : /Volumes/Data/Tavaraa/The Five Corners Quintet - The Helsinki Sessions (2011) - FLAC/05 - Skinny Dipping.flac
Track gain : -9.15 dB
Peak : 0.919037
CRC32 hash (test run) : 09EA1CE8
CRC32 hash : 09EA1CE8
CRC32 hash (skip zero) : 56FA6340
AccurateRip signature : 6EE198AD
->Accurately ripped! (confidence 2)
Statistics
Read error : 0
Jitter error (maybe fixed) : 0
Retry sector count : 0
Damaged sector count : 0
Track 06
Filename : /Volumes/Data/Tavaraa/The Five Corners Quintet - The Helsinki Sessions (2011) - FLAC/06 - Three Corners.flac
Track gain : -7.81 dB
Peak : 0.976990
CRC32 hash (test run) : 1A6FE06D
CRC32 hash : 1A6FE06D
CRC32 hash (skip zero) : 5D07EB69
AccurateRip signature : 71486006
->Accurately ripped! (confidence 2)
Statistics
Read error : 0
Jitter error (maybe fixed) : 0
Retry sector count : 0
Damaged sector count : 0
Track 07
Filename : /Volumes/Data/Tavaraa/The Five Corners Quintet - The Helsinki Sessions (2011) - FLAC/07 - Shake It.flac
Track gain : -9.55 dB
Peak : 0.977509
CRC32 hash (test run) : 1BA42DF0
CRC32 hash : 1BA42DF0
CRC32 hash (skip zero) : 7A613E15
AccurateRip signature : 749A30BC
->Accurately ripped! (confidence 2)
Statistics
Read error : 0
Jitter error (maybe fixed) : 0
Retry sector count : 0
Damaged sector count : 0
No errors occurred
End of status report
 
Содержание индексной карты (.CUE)
TITLE "The Helsinki Sessions"
PERFORMER "The Five Corners Quintet"
REM GENRE "Jazz"
REM DATE "2010"
REM DISCNUMBER 1
REM TOTALDISCS 1
REM DISCID 4B0F7E07
REM REPLAYGAIN_ALBUM_GAIN -9.03 dB
REM REPLAYGAIN_ALBUM_PEAK 0.977509
FILE "01 - Trading Eights.flac" WAVE
TRACK 01 AUDIO
TITLE "Trading Eights"
SONGWRITER "Tuomas Kallio"
ISRC FIRT71000175
REM REPLAYGAIN_TRACK_GAIN -8.73 dB
REM REPLAYGAIN_TRACK_PEAK 0.972473
INDEX 01 00:00:00
FILE "02 - Hot Rod.flac" WAVE
TRACK 02 AUDIO
TITLE "Hot Rod"
SONGWRITER "Tuomas Kallio"
ISRC FIRT71000176
REM REPLAYGAIN_TRACK_GAIN -8.86 dB
REM REPLAYGAIN_TRACK_PEAK 0.973206
INDEX 01 00:00:00
FILE "03 - Unsquare Bossa.flac" WAVE
TRACK 03 AUDIO
TITLE "Unsquare Bossa"
SONGWRITER "Teppo Mäkynen"
ISRC FIRT71000177
REM REPLAYGAIN_TRACK_GAIN -8.58 dB
REM REPLAYGAIN_TRACK_PEAK 0.977386
INDEX 01 00:00:00
FILE "04 - Midnight In Trieste.flac" WAVE
TRACK 04 AUDIO
TITLE "Midnight In Trieste"
SONGWRITER "Tuomas Kallio"
ISRC FIRT71000178
REM REPLAYGAIN_TRACK_GAIN -9.30 dB
REM REPLAYGAIN_TRACK_PEAK 0.972900
INDEX 01 00:00:00
FILE "05 - Skinny Dipping.flac" WAVE
TRACK 05 AUDIO
TITLE "Skinny Dipping"
SONGWRITER "Tuomas Kallio/Timo Lassy"
ISRC FIRT71000179
REM REPLAYGAIN_TRACK_GAIN -9.15 dB
REM REPLAYGAIN_TRACK_PEAK 0.919037
INDEX 01 00:00:00
FILE "06 - Three Corners.flac" WAVE
TRACK 06 AUDIO
TITLE "Three Corners"
SONGWRITER "Teppo Mäkynen"
ISRC FIRT71000180
REM REPLAYGAIN_TRACK_GAIN -7.81 dB
REM REPLAYGAIN_TRACK_PEAK 0.976990
INDEX 01 00:00:00
FILE "07 - Shake It.flac" WAVE
TRACK 07 AUDIO
TITLE "Shake It"
SONGWRITER "Teppo Mäkynen"
ISRC FIRT71000181
REM REPLAYGAIN_TRACK_GAIN -9.55 dB
REM REPLAYGAIN_TRACK_PEAK 0.977509
INDEX 01 00:00:00

Очень класные ритмичные финны.


альбомы 2005 и 2008 здесь
03:25
299
Нет комментариев. Ваш будет первым!