Поиск

(Bossa Nova, Ethnic Jazz, Latin Jazz) Antonio Carlos Jobim - Original Album Series {Box Set, 5CD} - 2011, FLAC (image+.cue), lossless

(Bossa Nova, Ethnic Jazz, Latin Jazz) Antonio Carlos Jobim - Original Album Series {Box Set, 5CD} - 2011, FLAC (image+.cue), lossless
Треклист:
•Antonio Carlos Jobim - Original Album Series {Box Set, 5CD}•
Жанр: Bossa Nova, Ethnic Jazz, Latin Jazz
Год издания: 2011
Издатель (лейбл): Warner Bros UK / Rhino Entertainment
Номер по каталогу:8122797706
Аудиокодек: FLAC (*.flac)
Тип рипа: image+.cue
Битрейт аудио: lossless
Продолжительность: 03:14:13
Источник (релизер): gkjoflm
Наличие сканов в содержимом раздачи: да
 
CD1 - The Wonderful World Of Antonio Carlos Jobim 1964 - 00:29:19
Треклист:

01. She's A Carioca [02:38]
02. Agua De Beber [02:29]
03. Surfboard [02:24]
04. Useless Landscape [02:18]
05. Sу Tinha De Ser Com Vocк [02:29]
06. A Felicidade [02:07]
07. Bonita [02:09]
08. Favela [02:37]
09. Valsa De Porto Das Caixas [03:22]
10. Samba Do Aviao [02:13]
11. Por Toda A Mimha Vida [01:51]
12. Dindi [02:35]
 
Лог создания рипа
Exact Audio Copy V0.99 prebeta 5 from 4. May 2009
EAC extraction logfile from 19. March 2012, 0:28
Antonio Carlos Jobim / The Wonderful World Of Antonio Carlos Jobim
Used drive : HL-DT-STBDDVDRW GBC-H20N Adapter: 1 ID: 0
Read mode : Secure
Utilize accurate stream : Yes
Defeat audio cache : Yes
Make use of C2 pointers : No
Read offset correction : 667
Overread into Lead-In and Lead-Out : No
Fill up missing offset samples with silence : Yes
Delete leading and trailing silent blocks : No
Null samples used in CRC calculations : Yes
Used interface : Native Win32 interface for Win NT & 2000
Used output format : Internal WAV Routines
Sample format : 44.100 Hz; 16 Bit; Stereo
TOC of the extracted CD
Track | Start | Length | Start sector | End sector
---------------------------------------------------------
1 | 0:00.00 | 2:38.12 | 0 | 11861
2 | 2:38.12 | 2:29.68 | 11862 | 23104
3 | 5:08.05 | 2:24.60 | 23105 | 33964
4 | 7:32.65 | 2:18.60 | 33965 | 44374
5 | 9:51.50 | 2:29.32 | 44375 | 55581
6 | 12:21.07 | 2:07.65 | 55582 | 65171
7 | 14:28.72 | 2:09.63 | 65172 | 74909
8 | 16:38.60 | 2:37.22 | 74910 | 86706
9 | 19:16.07 | 3:22.58 | 86707 | 101914
10 | 22:38.65 | 2:13.40 | 101915 | 111929
11 | 24:52.30 | 1:51.32 | 111930 | 120286
12 | 26:43.62 | 2:35.53 | 120287 | 131964
Range status and errors
Selected range
Filename I:\Music\Latin Jazz\Antonio Carlos Jobim\Original Album Series\Antonio.Carlos.Jobim-Original.Album.Series.2011.FLAC.CUE.Lossless\1964 - The Wonderful World of Antonio Carlos Jobim\Antonio Carlos Jobim - The Wonderful World Of Antonio Carlos Jo
Peak level 100.0 %
Range quality 100.0 %
Test CRC 58ADAC9E
Copy CRC 58ADAC9E
Copy OK
No errors occurred
AccurateRip summary
Track 1 cannot be verified as accurate (confidence 5) [77F13A19], AccurateRip returned [12C615D1]
Track 2 cannot be verified as accurate (confidence 5) [5BCBA9EB], AccurateRip returned [FE5D909B]
Track 3 cannot be verified as accurate (confidence 5) [01618F7D], AccurateRip returned [07BB06F5]
Track 4 cannot be verified as accurate (confidence 5) [4CE76D2A], AccurateRip returned [3E6E2B6A]
Track 5 cannot be verified as accurate (confidence 5) [903C0BCD], AccurateRip returned [278AB45D]
Track 6 cannot be verified as accurate (confidence 5) [F2D2413C], AccurateRip returned [6BED50A4]
Track 7 cannot be verified as accurate (confidence 5) [56C25FEC], AccurateRip returned [CB7D677C]
Track 8 cannot be verified as accurate (confidence 5) [338D471E], AccurateRip returned [C95BD2EE]
Track 9 cannot be verified as accurate (confidence 5) [B5B7F542], AccurateRip returned [B824747A]
Track 10 cannot be verified as accurate (confidence 5) [4FAF12E2], AccurateRip returned [1BAFF352]
Track 11 cannot be verified as accurate (confidence 5) [FB3191A9], AccurateRip returned [46B66471]
Track 12 cannot be verified as accurate (confidence 4) [46DF8007], AccurateRip returned [393FD6EF]
No tracks could be verified as accurate
You may have a different pressing from the one(s) in the database
End of status report
 
Содержание индексной карты (.CUE)
REM GENRE Rock
REM DATE 1965
REM DISCID 8006DF0C
REM COMMENT "ExactAudioCopy v0.99pb5"
PERFORMER "Antonio Carlos Jobim"
TITLE "The Wonderful World Of Antonio Carlos Jobim"
FILE "Antonio Carlos Jobim - The Wonderful World Of Antonio Carlos Jobim.wav" WAVE
TRACK 01 AUDIO
TITLE "She's A Carioca"
PERFORMER "Antonio Carlos Jobim"
INDEX 01 00:00:00
TRACK 02 AUDIO
TITLE "Agua De Beber"
PERFORMER "Antonio Carlos Jobim"
INDEX 01 02:38:12
TRACK 03 AUDIO
TITLE "Surfboard"
PERFORMER "Antonio Carlos Jobim"
INDEX 01 05:08:05
TRACK 04 AUDIO
TITLE "Useless Landscape"
PERFORMER "Antonio Carlos Jobim"
INDEX 01 07:32:65
TRACK 05 AUDIO
TITLE "Sє Tinha De Ser Com Vocъ"
PERFORMER "Antonio Carlos Jobim"
INDEX 01 09:51:50
TRACK 06 AUDIO
TITLE "A Felicidade"
PERFORMER "Antonio Carlos Jobim"
INDEX 01 12:21:07
TRACK 07 AUDIO
TITLE "Bonita"
PERFORMER "Antonio Carlos Jobim"
INDEX 01 14:28:72
TRACK 08 AUDIO
TITLE "Favela"
PERFORMER "Antonio Carlos Jobim"
INDEX 01 16:38:60
TRACK 09 AUDIO
TITLE "Valsa De PЇrto Das Caixas"
PERFORMER "Antonio Carlos Jobim"
INDEX 01 19:16:07
TRACK 10 AUDIO
TITLE "Samba Do Aviao"
PERFORMER "Antonio Carlos Jobim"
INDEX 01 22:38:65
TRACK 11 AUDIO
TITLE "Por Toda A Mimha Vida"
PERFORMER "Antonio Carlos Jobim"
INDEX 01 24:52:30
TRACK 12 AUDIO
TITLE "Dindi"
PERFORMER "Antonio Carlos Jobim"
INDEX 01 26:43:62
 
CD2 - Love, Strings And Jobim 1966 - 00:30:36
Треклист:

01. Hurry Up And Love Me (Eu Preciso de Vocк) [02:29]
02. If You Went Away (Preciso Aprender a Ser Sу) [03:09]
03. The Face I Love (Seu Encanto) [02:13]
04. The Sight Of You (Tristeza de Nуs Dois) [03:17]
05. Tears (Razгo de Viver) [02:44]
06. Berimbau [03:26]
07. Pardon My English (Samba Torto) [01:57]
08. Rain (Chuva) [02:18]
09. Vocк (You) [02:15]
10. Image (Imagem) [01:35]
11. I Live To Love You (Morrer De Amor) [02:55]
12. Neptune's Hep Tune (A Morte De Um Deus De Sal) [02:13]
 
Лог создания рипа
Exact Audio Copy V0.99 prebeta 5 from 4. May 2009
EAC extraction logfile from 18. March 2012, 22:24
Antonio Carlos Jobim / Love, Strings And Jobim
Used drive : HL-DT-STBDDVDRW GBC-H20N Adapter: 1 ID: 0
Read mode : Secure
Utilize accurate stream : Yes
Defeat audio cache : Yes
Make use of C2 pointers : No
Read offset correction : 667
Overread into Lead-In and Lead-Out : No
Fill up missing offset samples with silence : Yes
Delete leading and trailing silent blocks : No
Null samples used in CRC calculations : Yes
Used interface : Native Win32 interface for Win NT & 2000
Used output format : Internal WAV Routines
Sample format : 44.100 Hz; 16 Bit; Stereo
TOC of the extracted CD
Track | Start | Length | Start sector | End sector
---------------------------------------------------------
1 | 0:00.00 | 2:29.65 | 0 | 11239
2 | 2:29.65 | 3:09.52 | 11240 | 25466
3 | 5:39.42 | 2:13.05 | 25467 | 35446
4 | 7:52.47 | 3:17.35 | 35447 | 50256
5 | 11:10.07 | 2:44.00 | 50257 | 62556
6 | 13:54.07 | 3:26.63 | 62557 | 78069
7 | 17:20.70 | 1:57.02 | 78070 | 86846
8 | 19:17.72 | 2:18.50 | 86847 | 97246
9 | 21:36.47 | 2:15.18 | 97247 | 107389
10 | 23:51.65 | 1:35.55 | 107390 | 114569
11 | 25:27.45 | 2:55.27 | 114570 | 127721
12 | 28:22.72 | 2:13.38 | 127722 | 137734
Range status and errors
Selected range
Filename I:\Music\Latin Jazz\Antonio Carlos Jobim\Original Album
Series\Antonio.Carlos.Jobim-Original.Album.Series.2011.FLAC.CUE.Lossless\1966 - Love,Strings
and Jobim\Antonio Carlos Jobim - Love, Strings And Jobim.wav
Peak level 100.0 %
Range quality 100.0 %
Test CRC 7B1B24E5
Copy CRC 7B1B24E5
Copy OK
No errors occurred
AccurateRip summary
Track 1 cannot be verified as accurate (confidence 5) [6A8D5358], AccurateRip returned
[75D1C780]
Track 2 cannot be verified as accurate (confidence 5) [9B92A254], AccurateRip returned
[C5A432D4]
Track 3 cannot be verified as accurate (confidence 5) [8032B2C7], AccurateRip returned
[3F8A8B2F]
Track 4 cannot be verified as accurate (confidence 5) [32CE3787], AccurateRip returned
[1D1679FF]
Track 5 cannot be verified as accurate (confidence 5) [29337106], AccurateRip returned
[D95D3EAE]
Track 6 cannot be verified as accurate (confidence 5) [D5D065D8], AccurateRip returned
[91D2B0D0]
Track 7 cannot be verified as accurate (confidence 5) [C0AA38FB], AccurateRip returned
[B38C513B]
Track 8 cannot be verified as accurate (confidence 5) [D944C212], AccurateRip returned
[C9EE2F7A]
Track 9 cannot be verified as accurate (confidence 5) [73101ED0], AccurateRip returned
[1E8C9BD8]
Track 10 cannot be verified as accurate (confidence 5) [CCD79D22], AccurateRip returned
[A3B31ACA]
Track 11 cannot be verified as accurate (confidence 5) [449AC7A3], AccurateRip returned
[AD7F633B]
Track 12 cannot be verified as accurate (confidence 5) [CFD55324], AccurateRip returned
[9E04CCBC]
No tracks could be verified as accurate
You may have a different pressing from the one(s) in the database
End of status report
 
Содержание индексной карты (.CUE)
REM GENRE Latin
REM DATE 1966
REM DISCID 93072C0C
REM COMMENT "ExactAudioCopy v0.99pb5"
PERFORMER "Antonio Carlos Jobim"
TITLE "Love, Strings And Jobim"
FILE "Antonio Carlos Jobim - Love, Strings And Jobim.wav" WAVE
TRACK 01 AUDIO
TITLE "Hurry Up And Love Me (Eu Preciso de Vocъ)"
PERFORMER "Antonio Carlos Jobim"
INDEX 01 00:00:00
TRACK 02 AUDIO
TITLE "If You Went Away (Preciso Aprender a Ser Sє)"
PERFORMER "Antonio Carlos Jobim"
INDEX 01 02:29:65
TRACK 03 AUDIO
TITLE "The Face I Love (Seu Encanto)"
PERFORMER "Antonio Carlos Jobim"
INDEX 01 05:39:42
TRACK 04 AUDIO
TITLE "The Sight Of You (Tristeza de Nєs Dois)"
PERFORMER "Antonio Carlos Jobim"
INDEX 01 07:52:47
TRACK 05 AUDIO
TITLE "Tears (Razуo de Viver)"
PERFORMER "Antonio Carlos Jobim"
INDEX 01 11:10:07
TRACK 06 AUDIO
TITLE "Berimbau"
PERFORMER "Antonio Carlos Jobim"
INDEX 01 13:54:07
TRACK 07 AUDIO
TITLE "Pardon My English (Samba Torto)"
PERFORMER "Antonio Carlos Jobim"
INDEX 01 17:20:70
TRACK 08 AUDIO
TITLE "Rain (Chuva)"
PERFORMER "Antonio Carlos Jobim"
INDEX 01 19:17:72
TRACK 09 AUDIO
TITLE "Vocъ (You)"
PERFORMER "Antonio Carlos Jobim"
INDEX 01 21:36:47
TRACK 10 AUDIO
TITLE "Image (Imagem)"
PERFORMER "Antonio Carlos Jobim"
INDEX 01 23:51:65
TRACK 11 AUDIO
TITLE "I Live To Love You (Morrer De Amor)"
PERFORMER "Antonio Carlos Jobim"
INDEX 01 25:27:45
TRACK 12 AUDIO
TITLE "Neptune's Hep Tune (A Morte De Um Deus De Sal)"
PERFORMER "Antonio Carlos Jobim"
INDEX 01 28:22:72
 
CD3 - A Certain Mr. Jobim 1967 - 00:26:37
Треклист:

01. Bonita [02:58]
02. Se Todos Fossem Iguais A Voce [02:18]
03. Off Key (Desafinado) [03:08]
04. Photograph [02:12]
05. Surfboard [02:48]
06. Once Again (Outra Vez) [02:09]
07. I Was Just One More For You (Esperanca Perdida) [02:26]
08. Estrada Do Sol [03:31]
09. Don't Ever Go Away (Por Causa De Voce) [02:48]
10. Zingaro [02:16]
 
Лог создания рипа
Exact Audio Copy V0.99 prebeta 5 from 4. May 2009
EAC extraction logfile from 18. March 2012, 18:32
Antonio Carlos Jobim / A Certain Mr. Jobim
Used drive : HL-DT-STBDDVDRW GBC-H20N Adapter: 1 ID: 0
Read mode : Secure
Utilize accurate stream : Yes
Defeat audio cache : Yes
Make use of C2 pointers : No
Read offset correction : 667
Overread into Lead-In and Lead-Out : No
Fill up missing offset samples with silence : Yes
Delete leading and trailing silent blocks : No
Null samples used in CRC calculations : Yes
Used interface : Native Win32 interface for Win NT & 2000
Used output format : Internal WAV Routines
Sample format : 44.100 Hz; 16 Bit; Stereo
TOC of the extracted CD
Track | Start | Length | Start sector | End sector
---------------------------------------------------------
1 | 0:00.00 | 2:58.16 | 0 | 13365
2 | 2:58.16 | 2:18.41 | 13366 | 23756
3 | 5:16.57 | 3:08.13 | 23757 | 37869
4 | 8:24.70 | 2:12.01 | 37870 | 47770
5 | 10:36.71 | 2:48.01 | 47771 | 60371
6 | 13:24.72 | 2:09.11 | 60372 | 70057
7 | 15:34.08 | 2:26.41 | 70058 | 81048
8 | 18:00.49 | 3:31.24 | 81049 | 96897
9 | 21:31.73 | 2:48.48 | 96898 | 109545
10 | 24:20.46 | 2:16.41 | 109546 | 119786
Range status and errors
Selected range
Filename I:\Music\Latin Jazz\Antonio Carlos Jobim\Original Album
Series\Antonio.Carlos.Jobim-Original.Album.Series.2011.FLAC.CUE.Lossless\1967 - A Certain
Mr. Jobim\Antonio Carlos Jobim - A Certain Mr. Jobim.wav
Peak level 100.0 %
Range quality 100.0 %
Test CRC 64BCDA7D
Copy CRC 64BCDA7D
Copy OK
No errors occurred
AccurateRip summary
Track 1 not present in database
Track 2 not present in database
Track 3 not present in database
Track 4 not present in database
Track 5 not present in database
Track 6 not present in database
Track 7 not present in database
Track 8 not present in database
Track 9 not present in database
Track 10 not present in database
None of the tracks are present in the AccurateRip database
End of status report
 
Содержание индексной карты (.CUE)
REM GENRE Jazz
REM DATE 1967
REM DISCID 7A063D0A
REM COMMENT "ExactAudioCopy v0.99pb5"
PERFORMER "Antonio Carlos Jobim"
TITLE "A Certain Mr. Jobim"
FILE "Antonio Carlos Jobim - A Certain Mr. Jobim.wav" WAVE
TRACK 01 AUDIO
TITLE "Bonita"
PERFORMER "Antonio Carlos Jobim"
INDEX 01 00:00:00
TRACK 02 AUDIO
TITLE "Se Todos Fossem Iguais A Voce"
PERFORMER "Antonio Carlos Jobim"
INDEX 01 02:58:16
TRACK 03 AUDIO
TITLE "Off Key (Desafinado)"
PERFORMER "Antonio Carlos Jobim"
INDEX 01 05:16:57
TRACK 04 AUDIO
TITLE "Photograph"
PERFORMER "Antonio Carlos Jobim"
INDEX 01 08:24:70
TRACK 05 AUDIO
TITLE "Surfboard"
PERFORMER "Antonio Carlos Jobim"
INDEX 01 10:36:71
TRACK 06 AUDIO
TITLE "Once Again (Outra Vez)"
PERFORMER "Antonio Carlos Jobim"
INDEX 01 13:24:72
TRACK 07 AUDIO
TITLE "I Was Just One More For You (Esperanca Perdida)"
PERFORMER "Antonio Carlos Jobim"
INDEX 01 15:34:08
TRACK 08 AUDIO
TITLE "Estrada Do Sol"
PERFORMER "Antonio Carlos Jobim"
INDEX 01 18:00:49
TRACK 09 AUDIO
TITLE "Don't Ever Go Away (Por Causa De Voce)"
PERFORMER "Antonio Carlos Jobim"
INDEX 01 21:31:73
TRACK 10 AUDIO
TITLE "Zingaro"
PERFORMER "Antonio Carlos Jobim"
INDEX 01 24:20:46
 
CD4 - Urubu 1976 - 00:37:13
Треклист:

01. Bфto (Porpoise) [06:09]
02. Ligia [04:12]
03. Correnteza (The Stream) [02:41]
04. Angela [02:49]
05. Saudade Do Brazil [07:25]
06. Valse [03:14]
07. Arquitetura De Morar (Architecture To Live) [08:08]
08. O Homem (The Man) [02:32]
 
Лог создания рипа
Exact Audio Copy V0.99 prebeta 5 from 4. May 2009
EAC extraction logfile from 18. March 2012, 17:38
Antonio Carlos Jobim / Urubu
Used drive : HL-DT-STBDDVDRW GBC-H20N Adapter: 1 ID: 0
Read mode : Secure
Utilize accurate stream : Yes
Defeat audio cache : Yes
Make use of C2 pointers : No
Read offset correction : 667
Overread into Lead-In and Lead-Out : No
Fill up missing offset samples with silence : Yes
Delete leading and trailing silent blocks : No
Null samples used in CRC calculations : Yes
Used interface : Native Win32 interface for Win NT & 2000
Used output format : Internal WAV Routines
Sample format : 44.100 Hz; 16 Bit; Stereo
TOC of the extracted CD
Track | Start | Length | Start sector | End sector
---------------------------------------------------------
1 | 0:00.00 | 6:12.72 | 0 | 27971
2 | 6:12.72 | 4:16.20 | 27972 | 47191
3 | 10:29.17 | 2:44.43 | 47192 | 59534
4 | 13:13.60 | 2:51.47 | 59535 | 72406
5 | 16:05.32 | 7:31.08 | 72407 | 106239
6 | 23:36.40 | 3:17.35 | 106240 | 121049
7 | 26:54.00 | 8:11.52 | 121050 | 157926
8 | 35:05.52 | 2:32.23 | 157927 | 169349
Range status and errors
Selected range
Filename I:\Music\Latin Jazz\Antonio Carlos Jobim\Original Album
Series\Antonio.Carlos.Jobim-Original.Album.Series.2011.FLAC.CUE.Lossless\1976 -
Urubu\Antonio Carlos Jobim - Urubu.wav
Peak level 100.0 %
Range quality 100.0 %
Test CRC CB3D8CDB
Copy CRC CB3D8CDB
Copy OK
No errors occurred
AccurateRip summary
Track 1 cannot be verified as accurate (confidence 10) [E1270416], AccurateRip returned
[D31D00D8]
Track 2 cannot be verified as accurate (confidence 10) [9E9689EA], AccurateRip returned
[C3B1C4B6]
Track 3 cannot be verified as accurate (confidence 10) [46BD0A36], AccurateRip returned
[AF2A0E38]
Track 4 cannot be verified as accurate (confidence 10) [2253C8F1], AccurateRip returned
[58FE3EB3]
Track 5 cannot be verified as accurate (confidence 10) [DA2D57AD], AccurateRip returned
[0B10E7B1]
Track 6 cannot be verified as accurate (confidence 10) [A025A7A5], AccurateRip returned
[8903663D]
Track 7 cannot be verified as accurate (confidence 10) [CE87EC8E], AccurateRip returned
[3B327F24]
Track 8 cannot be verified as accurate (confidence 10) [D48DDB20], AccurateRip returned
[FEF8D6D6]
No tracks could be verified as accurate
You may have a different pressing from the one(s) in the database
End of status report
 
Содержание индексной карты (.CUE)
REM GENRE Latin
REM DATE 1976
REM DISCID 6B08D208
REM COMMENT "ExactAudioCopy v0.99pb5"
PERFORMER "Antonio Carlos Jobim"
TITLE "Urubu"
FILE "Antonio Carlos Jobim - Urubu.wav" WAVE
TRACK 01 AUDIO
TITLE "BЇto (Porpoise)"
PERFORMER "Antonio Carlos Jobim"
INDEX 01 00:00:00
TRACK 02 AUDIO
TITLE "Ligia"
PERFORMER "Antonio Carlos Jobim"
INDEX 00 06:09:67
INDEX 01 06:12:72
TRACK 03 AUDIO
TITLE "Correnteza (The Stream)"
PERFORMER "Antonio Carlos Jobim"
INDEX 00 10:25:35
INDEX 01 10:29:17
TRACK 04 AUDIO
TITLE "Angela"
PERFORMER "Antonio Carlos Jobim"
INDEX 00 13:10:67
INDEX 01 13:13:60
TRACK 05 AUDIO
TITLE "Saudade Do Brazil"
PERFORMER "Antonio Carlos Jobim"
INDEX 00 16:03:05
INDEX 01 16:05:32
TRACK 06 AUDIO
TITLE "Valse"
PERFORMER "Antonio Carlos Jobim"
INDEX 00 23:30:67
INDEX 01 23:36:40
TRACK 07 AUDIO
TITLE "Arquitetura De Morar (Architecture To Live)"
PERFORMER "Antonio Carlos Jobim"
INDEX 00 26:50:40
INDEX 01 26:54:00
TRACK 08 AUDIO
TITLE "O Homem (The Man)"
PERFORMER "Antonio Carlos Jobim"
INDEX 00 35:02:60
INDEX 01 35:05:52
 
CD5 - Terra Brasilis 1980 - 01:10:36
Треклист:

01. Dreamer (Viva Sonhando) [03:05]
02. Canta Mais (Since Once More) [04:32]
03. Olha Maria (Amparo) [04:04]
04. One Note Samba [02:17]
05. Dindi [04:15]
06. Quiet Nights Of Quiet Stars (Corcovado) [03:26]
07. Marina [02:53]
08. Off-Key (Desafinado) [03:24]
09. Vocк Vai Ver (You'll See) [02:55]
10. Estrada Do Sol (Road To The Sun) [02:04]
11. The Girl From Ipanema [04:47]
12. Double Rainbow [04:04]
13. Triste [03:05]
14. Wave [03:39]
15. Someone To Light Up My Life (Se Todos Fossem Iguais A Vocк) [03:04]
16. Falando De Amor (Speaking Of Love) [03:40]
17. Two Kites [04:36]
18. Modinha (Serenade) [03:36]
19. Song Of The Sabiб (Sabiб) [04:04]
20. This Happy Madness (Estrada Branca) [02:49]
 
Лог создания рипа
Exact Audio Copy V0.99 prebeta 5 from 4. May 2009
EAC extraction logfile from 18. March 2012, 21:25
Antonio Carlos Jobim / Terra Brasilis
Used drive : HL-DT-STBDDVDRW GBC-H20N Adapter: 1 ID: 0
Read mode : Secure
Utilize accurate stream : Yes
Defeat audio cache : Yes
Make use of C2 pointers : No
Read offset correction : 667
Overread into Lead-In and Lead-Out : No
Fill up missing offset samples with silence : Yes
Delete leading and trailing silent blocks : No
Null samples used in CRC calculations : Yes
Used interface : Native Win32 interface for Win NT & 2000
Used output format : Internal WAV Routines
Sample format : 44.100 Hz; 16 Bit; Stereo
TOC of the extracted CD
Track | Start | Length | Start sector | End sector
---------------------------------------------------------
1 | 0:00.00 | 3:05.67 | 0 | 13941
2 | 3:05.67 | 4:34.13 | 13942 | 34504
3 | 7:40.05 | 4:07.05 | 34505 | 53034
4 | 11:47.10 | 2:20.62 | 53035 | 63596
5 | 14:07.72 | 4:18.60 | 63597 | 83006
6 | 18:26.57 | 3:29.60 | 83007 | 98741
7 | 21:56.42 | 2:57.15 | 98742 | 112031
8 | 24:53.57 | 3:28.13 | 112032 | 127644
9 | 28:21.70 | 2:58.57 | 127645 | 141051
10 | 31:20.52 | 2:07.48 | 141052 | 150624
11 | 33:28.25 | 4:50.32 | 150625 | 172406
12 | 38:18.57 | 4:06.52 | 172407 | 190908
13 | 42:25.34 | 3:07.28 | 190909 | 204961
14 | 45:32.62 | 3:40.45 | 204962 | 221506
15 | 49:13.32 | 3:07.30 | 221507 | 235561
16 | 52:20.62 | 3:43.23 | 235562 | 252309
17 | 56:04.10 | 4:39.40 | 252310 | 273274
18 | 60:43.50 | 3:39.35 | 273275 | 289734
19 | 64:23.10 | 4:07.05 | 289735 | 308264
20 | 68:30.15 | 2:49.20 | 308265 | 320959
Range status and errors
Selected range
Filename I:\Music\Latin Jazz\Antonio Carlos Jobim\Original Album
Series\Antonio.Carlos.Jobim-Original.Album.Series.2011.FLAC.CUE.Lossless\1980 - Terra
Brasilis\Antonio Carlos Jobim - Terra Brasilis.wav
Peak level 99.9 %
Range quality 100.0 %
Test CRC 27BCD13A
Copy CRC 27BCD13A
Copy OK
No errors occurred
AccurateRip summary
Track 1 cannot be verified as accurate (confidence 4) [F651F5DB], AccurateRip returned
[6F7631AF]
Track 2 cannot be verified as accurate (confidence 3) [1BF481DF], AccurateRip returned
[485234D5]
Track 3 cannot be verified as accurate (confidence 4) [03E07DB0], AccurateRip returned
[FDD11118]
Track 4 cannot be verified as accurate (confidence 4) [AC22E22D], AccurateRip returned
[4AD66977]
Track 5 cannot be verified as accurate (confidence 3) [11E84293], AccurateRip returned
[354A268D]
Track 6 cannot be verified as accurate (confidence 3) [21575269], AccurateRip returned
[1DD9FB53]
Track 7 cannot be verified as accurate (confidence 3) [6196D5F0], AccurateRip returned
[744A19E6]
Track 8 cannot be verified as accurate (confidence 3) [B8C42B35], AccurateRip returned
[2DAE78BD]
Track 9 cannot be verified as accurate (confidence 4) [A35C5643], AccurateRip returned
[9E924C6F]
Track 10 cannot be verified as accurate (confidence 4) [A886A30F], AccurateRip returned
[FF10FAEF]
Track 11 cannot be verified as accurate (confidence 4) [93B91591], AccurateRip returned
[9C6056A5]
Track 12 cannot be verified as accurate (confidence 4) [8567B8B2], AccurateRip returned
[1DB37764]
Track 13 cannot be verified as accurate (confidence 4) [B39D8E87], AccurateRip returned
[43B95929]
Track 14 cannot be verified as accurate (confidence 4) [D08AB21C], AccurateRip returned
[BC481926]
Track 15 cannot be verified as accurate (confidence 4) [6908354F], AccurateRip returned
[61C04A97]
Track 16 cannot be verified as accurate (confidence 4) [902CEF49], AccurateRip returned
[7F8B853D]
Track 17 cannot be verified as accurate (confidence 4) [2E3F31E9], AccurateRip returned
[11378A55]
Track 18 cannot be verified as accurate (confidence 4) [3DFB6AE1], AccurateRip returned
[F5040611]
Track 19 cannot be verified as accurate (confidence 4) [92AAB23E], AccurateRip returned
[8F1D182C]
Track 20 cannot be verified as accurate (confidence 4) [25D9F987], AccurateRip returned
[18278409]
No tracks could be verified as accurate
You may have a different pressing from the one(s) in the database
End of status report
 
Содержание индексной карты (.CUE)
REM GENRE Latin
REM DATE 1980
REM DISCID 1710B714
REM COMMENT "ExactAudioCopy v0.99pb5"
PERFORMER "Antonio Carlos Jobim"
TITLE "Terra Brasilis"
FILE "Antonio Carlos Jobim - Terra Brasilis.wav" WAVE
TRACK 01 AUDIO
TITLE "Dreamer (Viva Sonhando)"
PERFORMER "Antonio Carlos Jobim"
INDEX 01 00:00:00
TRACK 02 AUDIO
TITLE "Canta Mais (Since Once More)"
PERFORMER "Antonio Carlos Jobim"
INDEX 01 03:05:67
TRACK 03 AUDIO
TITLE "Olha Maria (Amparo)"
PERFORMER "Antonio Carlos Jobim"
INDEX 00 07:38:10
INDEX 01 07:40:05
TRACK 04 AUDIO
TITLE "One Note Samba"
PERFORMER "Antonio Carlos Jobim"
INDEX 00 11:44:64
INDEX 01 11:47:10
TRACK 05 AUDIO
TITLE "Dindi"
PERFORMER "Antonio Carlos Jobim"
INDEX 00 14:04:70
INDEX 01 14:07:72
TRACK 06 AUDIO
TITLE "Quiet Nights Of Quiet Stars (Corcovado)"
PERFORMER "Antonio Carlos Jobim"
INDEX 00 18:23:15
INDEX 01 18:26:57
TRACK 07 AUDIO
TITLE "Marina"
PERFORMER "Antonio Carlos Jobim"
INDEX 00 21:53:12
INDEX 01 21:56:42
TRACK 08 AUDIO
TITLE "Off-Key (Desafinado)"
PERFORMER "Antonio Carlos Jobim"
INDEX 00 24:50:07
INDEX 01 24:53:57
TRACK 09 AUDIO
TITLE "Vocъ Vai Ver (You'll See)"
PERFORMER "Antonio Carlos Jobim"
INDEX 00 28:17:67
INDEX 01 28:21:70
TRACK 10 AUDIO
TITLE "Estrada Do Sol (Road To The Sun)"
PERFORMER "Antonio Carlos Jobim"
INDEX 00 31:17:17
INDEX 01 31:20:52
TRACK 11 AUDIO
TITLE "The Girl From Ipanema"
PERFORMER "Antonio Carlos Jobim"
INDEX 00 33:24:60
INDEX 01 33:28:25
TRACK 12 AUDIO
TITLE "Double Rainbow"
PERFORMER "Antonio Carlos Jobim"
INDEX 00 38:15:40
INDEX 01 38:18:57
TRACK 13 AUDIO
TITLE "Triste"
PERFORMER "Antonio Carlos Jobim"
INDEX 00 42:23:02
INDEX 01 42:25:34
TRACK 14 AUDIO
TITLE "Wave"
PERFORMER "Antonio Carlos Jobim"
INDEX 00 45:30:57
INDEX 01 45:32:62
TRACK 15 AUDIO
TITLE "Someone To Light Up My Life (Se Todos Fossem Iguais A Vocъ)"
PERFORMER "Antonio Carlos Jobim"
INDEX 00 49:11:65
INDEX 01 49:13:32
TRACK 16 AUDIO
TITLE "Falando De Amor (Speaking Of Love)"
PERFORMER "Antonio Carlos Jobim"
INDEX 00 52:17:40
INDEX 01 52:20:62
TRACK 17 AUDIO
TITLE "Two Kites"
PERFORMER "Antonio Carlos Jobim"
INDEX 00 56:01:07
INDEX 01 56:04:10
TRACK 18 AUDIO
TITLE "Modinha (Serenade)"
PERFORMER "Antonio Carlos Jobim"
INDEX 00 60:40:32
INDEX 01 60:43:50
TRACK 19 AUDIO
TITLE "Song Of The Sabiс (Sabiс)"
PERFORMER "Antonio Carlos Jobim"
INDEX 00 64:20:12
INDEX 01 64:23:10
TRACK 20 AUDIO
TITLE "This Happy Madness (Estrada Branca)"
PERFORMER "Antonio Carlos Jobim"
INDEX 00 68:28:05
INDEX 01 68:30:15
03:26
533
Нет комментариев. Ваш будет первым!