Поиск

(Cumbia, Latin American Music, Latin Jazz) [CD] Ondatropica - Ondatrópica - 2012, FLAC (tracks+.cue), lossless

(Cumbia, Latin American Music, Latin Jazz) [CD] Ondatropica - Ondatrópica - 2012, FLAC (tracks+.cue), lossless
Треклист:
Ondatrópica. Ondatrópica. 2012
(Formed. 01/11/2011, Bogotá / Cundinamarca / Colombia.)
Жанр. Cumbia. Latin Jazz. Afro-Cuban Jazz. Champeta. Dub. Latin Rap. Ska. Vallenato.
Label. Soundway Records. SNDWCD045. UK. 2012.
Аудио. FLAC (* flac). tracks + cue. lossless. CD.
Источник | релизер. whatcD | Hofstadter.
Наличие сканов в раздаче. нет.

01. Tiene Sabor, Tiene Sazón.
02. Punkero Sonidero.
03. I Ron Man.
04. Suena.
05. Locomotora Borracha.
06. Remando.
07. Linda mañana.
08. Ska Fuentes.
09. 3 Reyes De La Terepia.
10. Bomba Trópica.
11. Descarga Trópica.
12. Libya.
13. Gaita Trópica.
14. Curro Fuentes.
15. Rap maya.
16. Dos Lucecitas.
17. Cumbia Especial.
18. Donde Suena El Bombo.
19. Swing De Gillian.
 
time. 01/17/36.
 
cue.
REM GENRE "Latin American Music"
REM DATE 2012
REM DISCID 27122F13
REM COMMENT "ExactAudioCopy v1.0b3"
PERFORMER "Ondatrópica"
TITLE "Ondatrópica"
FILE "01. Tiene Sabor, Tiene Sazón.wav" WAVE
TRACK 01 AUDIO
TITLE "Tiene Sabor, Tiene Sazón"
PERFORMER "Ondatrópica"
ISRC GBUQH1200071
INDEX 01 00:00:00
TRACK 02 AUDIO
TITLE "Punkero Sonidero"
PERFORMER "Ondatrópica"
ISRC GBUQH1200072
INDEX 00 04:31:43
FILE "02. Punkero Sonidero.wav" WAVE
INDEX 01 00:00:00
TRACK 03 AUDIO
TITLE "I Ron Man"
PERFORMER "Ondatrópica"
ISRC GBUQH1200073
INDEX 00 03:27:63
FILE "03. I Ron Man.wav" WAVE
INDEX 01 00:00:00
TRACK 04 AUDIO
TITLE "Suena"
PERFORMER "Ondatrópica"
ISRC GBUQH1200074
INDEX 00 02:50:46
FILE "04. Suena.wav" WAVE
INDEX 01 00:00:00
TRACK 05 AUDIO
TITLE "Locomotora Borracha"
PERFORMER "Ondatrópica"
ISRC GBUQH1200075
INDEX 00 04:59:39
FILE "05. Locomotora Borracha.wav" WAVE
INDEX 01 00:00:00
TRACK 06 AUDIO
TITLE "Remando"
PERFORMER "Ondatrópica"
ISRC GBUQH1200076
INDEX 00 03:07:36
FILE "06. Remando.wav" WAVE
INDEX 01 00:00:00
TRACK 07 AUDIO
TITLE "Linda mañana"
PERFORMER "Ondatrópica"
ISRC GBUQH1200086
INDEX 00 04:50:13
FILE "07. Linda mañana.wav" WAVE
INDEX 01 00:00:00
TRACK 08 AUDIO
TITLE "Ska Fuentes"
PERFORMER "Ondatrópica"
ISRC GBUQH1200077
INDEX 00 04:20:42
FILE "08. Ska Fuentes.wav" WAVE
INDEX 01 00:00:00
TRACK 09 AUDIO
TITLE "3 Reyes De La Terepia"
PERFORMER "Ondatrópica"
ISRC GBUQH1200078
INDEX 00 04:40:02
FILE "09. 3 Reyes De La Terepia.wav" WAVE
INDEX 01 00:00:00
TRACK 10 AUDIO
TITLE "Bomba Trópica"
PERFORMER "Ondatrópica"
ISRC GBUQH1200085
INDEX 00 03:42:74
FILE "10. Bomba Trópica.wav" WAVE
INDEX 01 00:00:00
TRACK 11 AUDIO
TITLE "Descarga Trópica"
PERFORMER "Ondatrópica"
ISRC GBUQH1200091
INDEX 00 05:27:48
FILE "11. Descarga Trópica.wav" WAVE
INDEX 01 00:00:00
TRACK 12 AUDIO
TITLE "Libya"
PERFORMER "Ondatrópica"
ISRC GBUQH1200079
INDEX 00 07:07:70
FILE "12. Libya.wav" WAVE
INDEX 01 00:00:00
TRACK 13 AUDIO
TITLE "Gaita Trópica"
PERFORMER "Ondatrópica"
ISRC GBUQH1200080
INDEX 00 03:20:49
FILE "13. Gaita Trópica.wav" WAVE
INDEX 01 00:00:00
TRACK 14 AUDIO
TITLE "Curro Fuentes"
PERFORMER "Ondatrópica"
ISRC GBUQH1200090
INDEX 00 02:34:45
FILE "14. Curro Fuentes.wav" WAVE
INDEX 01 00:00:00
TRACK 15 AUDIO
TITLE "Rap maya"
PERFORMER "Ondatrópica"
ISRC GBUQH1200081
INDEX 00 04:19:69
FILE "15. Rap maya.wav" WAVE
INDEX 01 00:00:00
TRACK 16 AUDIO
TITLE "Dos Lucecitas"
PERFORMER "Ondatrópica"
ISRC GBUQH1200082
INDEX 00 01:45:49
FILE "16. Dos Lucecitas.wav" WAVE
INDEX 01 00:00:00
TRACK 17 AUDIO
TITLE "Cumbia Especial"
PERFORMER "Ondatrópica"
ISRC GBUQH1200083
INDEX 00 03:28:39
FILE "17. Cumbia Especial.wav" WAVE
INDEX 01 00:00:00
TRACK 18 AUDIO
TITLE "Donde Suena El Bombo"
PERFORMER "Ondatrópica"
ISRC GBUQH1200094
INDEX 00 04:03:27
FILE "18. Donde Suena El Bombo.wav" WAVE
INDEX 01 00:00:00
TRACK 19 AUDIO
TITLE "Swing De Gillian"
PERFORMER "Ondatrópica"
ISRC GBUQH1200084
INDEX 00 05:08:24
FILE "19. Swing De Gillian.wav" WAVE
INDEX 01 00:00:00
 
log
Exact Audio Copy V1.0 beta 3 from 29. August 2011
EAC extraction logfile from 16. August 2012, 14:12
Ondatrópica / Ondatrópica
Used drive : TSSTcorpDVD+-RW TS-T633C Adapter: 0 ID: 1
Read mode : Secure
Utilize accurate stream : Yes
Defeat audio cache : Yes
Make use of C2 pointers : No
Read offset correction : 6
Overread into Lead-In and Lead-Out : No
Fill up missing offset samples with silence : Yes
Delete leading and trailing silent blocks : No
Null samples used in CRC calculations : Yes
Used interface : Native Win32 interface for Win NT & 2000
Gap handling : Appended to previous track
Used output format : User Defined Encoder
Selected bitrate : 1024 kBit/s
Quality : High
Add ID3 tag : No
Command line compressor : C:\Program Files (x86)\Exact Audio Copy\Flac\flac.exe
Additional command line options : -8 -V -T "ARTIST=%artist%" -T "TITLE=%title%" -T "ALBUM=%albumtitle%" -T "DATE=%year%" -T "TRACKNUMBER=%tracknr%" -T "GENRE=%genre%" -T "PERFORMER=%albuminterpret%" -T "COMPOSER=%composer%" %haslyrics%--tag-from-file=LYRICS="%lyricsfile%"%haslyrics% -T "ALBUMARTIST=%albumartist%" -T "DISCNUMBER=%cdnumber%" -T "TOTALDISCS=%totalcds%" -T "TOTALTRACKS=%numtracks%" -T "COMMENT=%comment%" %source% -o %dest%
TOC of the extracted CD
Track | Start | Length | Start sector | End sector
---------------------------------------------------------
1 | 0:00.00 | 4:33.42 | 0 | 20516
2 | 4:33.42 | 3:29.62 | 20517 | 36253
3 | 8:03.29 | 2:52.45 | 36254 | 49198
4 | 10:55.74 | 5:01.37 | 49199 | 71810
5 | 15:57.36 | 3:09.35 | 71811 | 86020
6 | 19:06.71 | 4:52.12 | 86021 | 107932
7 | 23:59.08 | 4:22.41 | 107933 | 127623
8 | 28:21.49 | 4:42.01 | 127624 | 148774
9 | 33:03.50 | 3:44.73 | 148775 | 165647
10 | 36:48.48 | 5:29.47 | 165648 | 190369
11 | 42:18.20 | 7:09.69 | 190370 | 222613
12 | 49:28.14 | 3:22.48 | 222614 | 237811
13 | 52:50.62 | 2:36.44 | 237812 | 249555
14 | 55:27.31 | 4:21.68 | 249556 | 269198
15 | 59:49.24 | 1:47.48 | 269199 | 277271
16 | 61:36.72 | 3:30.37 | 277272 | 293058
17 | 65:07.34 | 4:05.25 | 293059 | 311458
18 | 69:12.59 | 5:10.23 | 311459 | 334731
19 | 74:23.07 | 3:12.52 | 334732 | 349183
Track 1
Filename C:\Users\Sam Wolk\Desktop\Rips\Ondatropica\Ondatropica - Ondatropica (2012) [FLAC] {SNDWCD045}\01 - Tiene Sabor, Tiene Sazón.wav
Pre-gap length 0:00:02.00
Peak level 93.3 %
Extraction speed 2.0 X
Track quality 99.9 %
Test CRC 536D42D9
Copy CRC 536D42D9
Track not present in AccurateRip database
Copy OK
Track 2
Filename C:\Users\Sam Wolk\Desktop\Rips\Ondatropica\Ondatropica - Ondatropica (2012) [FLAC] {SNDWCD045}\02 - Punkero Sonidero.wav
Pre-gap length 0:00:01.98
Peak level 94.4 %
Extraction speed 2.1 X
Track quality 99.9 %
Test CRC 20F99AC7
Copy CRC 20F99AC7
Track not present in AccurateRip database
Copy OK
Track 3
Filename C:\Users\Sam Wolk\Desktop\Rips\Ondatropica\Ondatropica - Ondatropica (2012) [FLAC] {SNDWCD045}\03 - I Ron Man.wav
Pre-gap length 0:00:01.98
Peak level 94.4 %
Extraction speed 3.1 X
Track quality 100.0 %
Test CRC D6EAEB82
Copy CRC D6EAEB82
Track not present in AccurateRip database
Copy OK
Track 4
Filename C:\Users\Sam Wolk\Desktop\Rips\Ondatropica\Ondatropica - Ondatropica (2012) [FLAC] {SNDWCD045}\04 - Suena.wav
Pre-gap length 0:00:01.98
Peak level 94.4 %
Extraction speed 3.6 X
Track quality 100.0 %
Test CRC E8BB5D53
Copy CRC E8BB5D53
Track not present in AccurateRip database
Copy OK
Track 5
Filename C:\Users\Sam Wolk\Desktop\Rips\Ondatropica\Ondatropica - Ondatropica (2012) [FLAC] {SNDWCD045}\05 - Locomotora Borracha.wav
Pre-gap length 0:00:01.97
Peak level 94.4 %
Extraction speed 3.5 X
Track quality 100.0 %
Test CRC 690BDA25
Copy CRC 690BDA25
Track not present in AccurateRip database
Copy OK
Track 6
Filename C:\Users\Sam Wolk\Desktop\Rips\Ondatropica\Ondatropica - Ondatropica (2012) [FLAC] {SNDWCD045}\06 - Remando.wav
Pre-gap length 0:00:01.98
Peak level 94.3 %
Extraction speed 3.4 X
Track quality 99.9 %
Test CRC 36AFBEF0
Copy CRC 36AFBEF0
Track not present in AccurateRip database
Copy OK
Track 7
Filename C:\Users\Sam Wolk\Desktop\Rips\Ondatropica\Ondatropica - Ondatropica (2012) [FLAC] {SNDWCD045}\07 - Linda manana.wav
Pre-gap length 0:00:01.98
Peak level 93.9 %
Extraction speed 4.1 X
Track quality 100.0 %
Test CRC 5528AF32
Copy CRC 5528AF32
Track not present in AccurateRip database
Copy OK
Track 8
Filename C:\Users\Sam Wolk\Desktop\Rips\Ondatropica\Ondatropica - Ondatropica (2012) [FLAC] {SNDWCD045}\08 - Ska Fuentes.wav
Pre-gap length 0:00:01.98
Peak level 94.3 %
Extraction speed 4.3 X
Track quality 100.0 %
Test CRC 29E005AF
Copy CRC 29E005AF
Track not present in AccurateRip database
Copy OK
Track 9
Filename C:\Users\Sam Wolk\Desktop\Rips\Ondatropica\Ondatropica - Ondatropica (2012) [FLAC] {SNDWCD045}\09 - 3 Reyes De La Terepia.wav
Pre-gap length 0:00:01.98
Peak level 93.5 %
Extraction speed 4.3 X
Track quality 100.0 %
Test CRC 58F99169
Copy CRC 58F99169
Track not present in AccurateRip database
Copy OK
Track 10
Filename C:\Users\Sam Wolk\Desktop\Rips\Ondatropica\Ondatropica - Ondatropica (2012) [FLAC] {SNDWCD045}\10 - Bomba Trópica.wav
Pre-gap length 0:00:01.98
Peak level 94.4 %
Extraction speed 4.7 X
Track quality 100.0 %
Test CRC D997674E
Copy CRC D997674E
Track not present in AccurateRip database
Copy OK
Track 11
Filename C:\Users\Sam Wolk\Desktop\Rips\Ondatropica\Ondatropica - Ondatropica (2012) [FLAC] {SNDWCD045}\11 - Descarga Trópica.wav
Pre-gap length 0:00:01.98
Peak level 94.4 %
Extraction speed 4.5 X
Track quality 99.9 %
Test CRC 546C4ED3
Copy CRC 546C4ED3
Track not present in AccurateRip database
Copy OK
Track 12
Filename C:\Users\Sam Wolk\Desktop\Rips\Ondatropica\Ondatropica - Ondatropica (2012) [FLAC] {SNDWCD045}\12 - Libya.wav
Pre-gap length 0:00:01.98
Peak level 94.3 %
Extraction speed 4.8 X
Track quality 100.0 %
Test CRC C94B613B
Copy CRC C94B613B
Track not present in AccurateRip database
Copy OK
Track 13
Filename C:\Users\Sam Wolk\Desktop\Rips\Ondatropica\Ondatropica - Ondatropica (2012) [FLAC] {SNDWCD045}\13 - Gaita Trópica.wav
Pre-gap length 0:00:01.98
Peak level 93.1 %
Extraction speed 4.6 X
Track quality 100.0 %
Test CRC 8F90DB2F
Copy CRC 8F90DB2F
Track not present in AccurateRip database
Copy OK
Track 14
Filename C:\Users\Sam Wolk\Desktop\Rips\Ondatropica\Ondatropica - Ondatropica (2012) [FLAC] {SNDWCD045}\14 - Curro Fuentes.wav
Pre-gap length 0:00:01.98
Peak level 94.3 %
Extraction speed 4.4 X
Track quality 99.9 %
Test CRC B8247B04
Copy CRC B8247B04
Track not present in AccurateRip database
Copy OK
Track 15
Filename C:\Users\Sam Wolk\Desktop\Rips\Ondatropica\Ondatropica - Ondatropica (2012) [FLAC] {SNDWCD045}\15 - Rap maya.wav
Pre-gap length 0:00:01.98
Peak level 94.4 %
Extraction speed 4.4 X
Track quality 100.0 %
Test CRC 7DA2E62C
Copy CRC 7DA2E62C
Track not present in AccurateRip database
Copy OK
Track 16
Filename C:\Users\Sam Wolk\Desktop\Rips\Ondatropica\Ondatropica - Ondatropica (2012) [FLAC] {SNDWCD045}\16 - Dos Lucecitas.wav
Pre-gap length 0:00:01.98
Peak level 90.8 %
Extraction speed 4.2 X
Track quality 99.9 %
Test CRC 63669F1D
Copy CRC 63669F1D
Track not present in AccurateRip database
Copy OK
Track 17
Filename C:\Users\Sam Wolk\Desktop\Rips\Ondatropica\Ondatropica - Ondatropica (2012) [FLAC] {SNDWCD045}\17 - Cumbia Especial.wav
Pre-gap length 0:00:01.97
Peak level 92.2 %
Extraction speed 4.5 X
Track quality 99.9 %
Test CRC 5204E99E
Copy CRC 5204E99E
Track not present in AccurateRip database
Copy OK
Track 18
Filename C:\Users\Sam Wolk\Desktop\Rips\Ondatropica\Ondatropica - Ondatropica (2012) [FLAC] {SNDWCD045}\18 - Donde Suena El Bombo.wav
Pre-gap length 0:00:01.97
Peak level 92.5 %
Extraction speed 5.7 X
Track quality 100.0 %
Test CRC D7D1E1BB
Copy CRC D7D1E1BB
Track not present in AccurateRip database
Copy OK
Track 19
Filename C:\Users\Sam Wolk\Desktop\Rips\Ondatropica\Ondatropica - Ondatropica (2012) [FLAC] {SNDWCD045}\19 - Swing De Gillian.wav
Pre-gap length 0:00:01.98
Peak level 92.8 %
Extraction speed 5.5 X
Track quality 100.0 %
Test CRC F498A6AE
Copy CRC F498A6AE
Track not present in AccurateRip database
Copy OK
None of the tracks are present in the AccurateRip database
No errors occurred
End of status report
==== Log checksum E69DA8B70678CAD39D617BA24648A687C97BEE79C6DE39971202384A4431A9AE ====
 
присутствуют...

  • Accordion
    Alto Saxophone / Baritone Saxophone / Sopranino Saxophone
    Backing Vocals
    Bass / Double Bass
    Bombo
    Bongos
    Clarinet / Bass Clarinet
    Congas
    Drums
    Electric Piano
    Flugelhorn
    Flute (Caña De Millo)
    Guiro
    Guitar
    Human Beatbox
    Lead Vocals
    Marimba
    Marimbula
    Percussion (Guacharaca / Cymbals / Llamador / Tambor Alegre)
    Piano
    Synthesizer
    Timbales
    Trombone
    Trumpet
    Vibraslap
    Wood Block
21:37
217
Нет комментариев. Ваш будет первым!