Поиск

(Brazilian Jazz, Bossa Nova) [CD] Rosa Passos - Amorosa - 2004, FLAC (tracks+.cue), lossless

(Brazilian Jazz, Bossa Nova) [CD] Rosa Passos - Amorosa - 2004, FLAC (tracks+.cue), lossless
Треклист:
Rosa Passos - Amorosa
Жанр: Brazilian Jazz, Bossa Nova
Носитель: CD
Страна-производитель диска (релиза): США/Франция
Год издания: 2004
Издатель (лейбл): Sony Classical
Номер по каталогу: SK 92068
Аудиокодек: FLAC (*.flac)
Тип рипа: tracks+.cue
Битрейт аудио: lossless
Продолжительность: 58:52
Источник (релизер): Vroly (what)
Наличие сканов в содержимом раздачи: нет
Треклист:
01. Voce vai ver (Jobim) - 4:53
02. Wave (Jobim) - 3:15
03. Besame mucho (Velasquez) - 6:52
04. Pra que discutir com madame (De Almeida-Barbosa) - 2:23
05. Lobo Bobo (Lyra-Boscoli) - 5:00
06. O pato (Silva-Teixeira) - 4:09
07. Retrato em branco e preto (Jobim-Buarque) - 6:15
08. Eu sambo mesmo (De Almeida) - 3:08
09. Essa e pr'o Joao (Passos-Medeiros) - 3:01
10. Que reste-t-il de nos amours (duet with Henri Salvador) (Trenet) - 3:41
11. S'Wonderful (Gershwin-Gershwin) - 4:32
12. Chega de saudade (with Yo-Yo Ma) (Jobim) - 4:15
13. Triste (Jobim) - 4:12
14. Wave (duet with Henri Salvador) (Jobim) - 3:16
 
Лог создания рипа
Exact Audio Copy V1.0 beta 3 from 29. August 2011
EAC extraction logfile from 20. June 2016, 22:26
Rosa Passos / Amorosa
Used drive : TSSTcorpCDDVDW SE-218CB Adapter: 1 ID: 0
Read mode : Secure
Utilize accurate stream : Yes
Defeat audio cache : Yes
Make use of C2 pointers : No
Read offset correction : 6
Overread into Lead-In and Lead-Out : No
Fill up missing offset samples with silence : Yes
Delete leading and trailing silent blocks : No
Null samples used in CRC calculations : Yes
Used interface : Native Win32 interface for Win NT & 2000
Gap handling : Appended to previous track
Used output format : User Defined Encoder
Selected bitrate : 1024 kBit/s
Quality : High
Add ID3 tag : No
Command line compressor : C:\Program Files (x86)\Exact Audio Copy\Flac\flac.exe
Additional command line options : -8 -V -T "ARTIST=%artist%" -T "TITLE=%title%" -T "ALBUM=%albumtitle%" -T "DATE=%year%" -T "TRACKNUMBER=%tracknr%" -T "GENRE=%genre%" -T "PERFORMER=%albuminterpret%" -T "COMPOSER=%composer%" %haslyrics%--tag-from-file=LYRICS="%lyricsfile%"%haslyrics% -T "ALBUMARTIST=%albumartist%" -T "DISCNUMBER=%cdnumber%" -T "TOTALDISCS=%totalcds%" -T "TOTALTRACKS=%numtracks%" -T "COMMENT=%comment%" %source% -o %dest%
TOC of the extracted CD
Track | Start | Length | Start sector | End sector
---------------------------------------------------------
1 | 0:00.00 | 4:52.70 | 0 | 21969
2 | 4:52.70 | 3:14.61 | 21970 | 36580
3 | 8:07.56 | 6:52.06 | 36581 | 67486
4 | 14:59.62 | 2:23.23 | 67487 | 78234
5 | 17:23.10 | 4:59.68 | 78235 | 100727
6 | 22:23.03 | 4:08.59 | 100728 | 119386
7 | 26:31.62 | 6:14.64 | 119387 | 147500
8 | 32:46.51 | 3:07.39 | 147501 | 161564
9 | 35:54.15 | 3:01.13 | 161565 | 175152
10 | 38:55.28 | 3:40.68 | 175153 | 191720
11 | 42:36.21 | 4:31.57 | 191721 | 212102
12 | 47:08.03 | 4:14.48 | 212103 | 231200
13 | 51:22.51 | 4:11.71 | 231201 | 250096
14 | 55:34.47 | 3:16.25 | 250097 | 264821
Track 1
Filename C:\EAC\Rosa Passos - Amorosa - 2004 - FLAC - CD\01. Você vai ver.wav
Pre-gap length 0:00:02.00
Peak level 100.0 %
Extraction speed 2.7 X
Track quality 100.0 %
Test CRC AF740FBF
Copy CRC AF740FBF
Accurately ripped (confidence 4) [AF687308] (AR v2)
Copy OK
Track 2
Filename C:\EAC\Rosa Passos - Amorosa - 2004 - FLAC - CD\02. Wave.wav
Peak level 100.0 %
Extraction speed 2.8 X
Track quality 100.0 %
Test CRC E1E0D30B
Copy CRC E1E0D30B
Accurately ripped (confidence 4) [714A2CEF] (AR v2)
Copy OK
Track 3
Filename C:\EAC\Rosa Passos - Amorosa - 2004 - FLAC - CD\03. Besame mucho.wav
Peak level 100.0 %
Extraction speed 3.4 X
Track quality 100.0 %
Test CRC EDC3D0E6
Copy CRC EDC3D0E6
Accurately ripped (confidence 4) [831685D3] (AR v2)
Copy OK
Track 4
Filename C:\EAC\Rosa Passos - Amorosa - 2004 - FLAC - CD\04. Pra que discutir com madame.wav
Peak level 100.0 %
Extraction speed 3.2 X
Track quality 100.0 %
Test CRC 306719DC
Copy CRC 306719DC
Accurately ripped (confidence 4) [D9B83C17] (AR v2)
Copy OK
Track 5
Filename C:\EAC\Rosa Passos - Amorosa - 2004 - FLAC - CD\05. Lobo bobo.wav
Peak level 100.0 %
Extraction speed 3.7 X
Track quality 100.0 %
Test CRC 836E9A3B
Copy CRC 836E9A3B
Accurately ripped (confidence 4) [D9F40FC6] (AR v2)
Copy OK
Track 6
Filename C:\EAC\Rosa Passos - Amorosa - 2004 - FLAC - CD\06. O pato.wav
Peak level 100.0 %
Extraction speed 3.9 X
Track quality 100.0 %
Test CRC E66C9C35
Copy CRC E66C9C35
Accurately ripped (confidence 4) [0E1BDF54] (AR v2)
Copy OK
Track 7
Filename C:\EAC\Rosa Passos - Amorosa - 2004 - FLAC - CD\07. Retrato em branco e preto.wav
Peak level 100.0 %
Extraction speed 4.3 X
Track quality 100.0 %
Test CRC 550CC9E1
Copy CRC 550CC9E1
Accurately ripped (confidence 4) [3305D6A6] (AR v2)
Copy OK
Track 8
Filename C:\EAC\Rosa Passos - Amorosa - 2004 - FLAC - CD\08. Eu sambo mesmo.wav
Peak level 100.0 %
Extraction speed 4.1 X
Track quality 100.0 %
Test CRC 9FB3A80A
Copy CRC 9FB3A80A
Accurately ripped (confidence 4) [5C0CA474] (AR v2)
Copy OK
Track 9
Filename C:\EAC\Rosa Passos - Amorosa - 2004 - FLAC - CD\09. Essa é pr'o joão.wav
Peak level 100.0 %
Extraction speed 4.2 X
Track quality 100.0 %
Test CRC 709B7FBA
Copy CRC 709B7FBA
Accurately ripped (confidence 4) [EEF6ACEF] (AR v2)
Copy OK
Track 10
Filename C:\EAC\Rosa Passos - Amorosa - 2004 - FLAC - CD\10. Que reste-t-il de nos amours (duet with Henry Salvador).wav
Peak level 100.0 %
Extraction speed 4.5 X
Track quality 100.0 %
Test CRC 0CAB736F
Copy CRC 0CAB736F
Accurately ripped (confidence 4) [482F0C03] (AR v2)
Copy OK
Track 11
Filename C:\EAC\Rosa Passos - Amorosa - 2004 - FLAC - CD\11. S'wonderful.wav
Peak level 100.0 %
Extraction speed 4.8 X
Track quality 100.0 %
Test CRC A3B671B8
Copy CRC A3B671B8
Accurately ripped (confidence 4) [A6F93D40] (AR v2)
Copy OK
Track 12
Filename C:\EAC\Rosa Passos - Amorosa - 2004 - FLAC - CD\12. Chega de saudade (with Yo-Yo Ma, cello).wav
Pre-gap length 0:00:04.09
Peak level 93.6 %
Extraction speed 3.8 X
Track quality 99.9 %
Test CRC A7B55103
Copy CRC A7B55103
Accurately ripped (confidence 4) [CC332A13] (AR v2)
Copy OK
Track 13
Filename C:\EAC\Rosa Passos - Amorosa - 2004 - FLAC - CD\13. Triste.wav
Peak level 100.0 %
Extraction speed 4.8 X
Track quality 100.0 %
Test CRC 6D718A22
Copy CRC 6D718A22
Accurately ripped (confidence 4) [967B22D1] (AR v2)
Copy OK
Track 14
Filename C:\EAC\Rosa Passos - Amorosa - 2004 - FLAC - CD\14. Wave (duet with Henry Salvador).wav
Pre-gap length 0:00:00.21
Peak level 100.0 %
Extraction speed 4.7 X
Track quality 100.0 %
Test CRC 58432147
Copy CRC 58432147
Accurately ripped (confidence 4) [43C66AD1] (AR v2)
Copy OK
All tracks accurately ripped
No errors occurred
End of status report
==== Log checksum 48CFF655C5CA24585C561772C08C4E53B28E16DB1BB69B3AE88A4E323F2DA687 ====
 
Содержание индексной карты (.CUE)
REM GENRE Jazz
REM DATE 2004
REM DISCID CD0DCA0E
REM COMMENT "ExactAudioCopy v1.0b3"
PERFORMER "Rosa Passos"
TITLE "Amorosa"
FILE "01 - Voce vai ver.wav" WAVE
TRACK 01 AUDIO
TITLE "Voce vai ver"
PERFORMER "Rosa Passos"
ISRC USSM10404600
INDEX 01 00:00:00
FILE "02 - Wave.wav" WAVE
TRACK 02 AUDIO
TITLE "Wave"
PERFORMER "Rosa Passos"
ISRC USSM10404598
INDEX 01 00:00:00
FILE "03 - Besame mucho.wav" WAVE
TRACK 03 AUDIO
TITLE "Besame mucho"
PERFORMER "Rosa Passos"
ISRC USSM10404606
INDEX 01 00:00:00
FILE "04 - Pra que discutir com madame.wav" WAVE
TRACK 04 AUDIO
TITLE "Pra que discutir com madame"
PERFORMER "Rosa Passos"
ISRC USSM10404596
INDEX 01 00:00:00
FILE "05 - Lobo Bobo.wav" WAVE
TRACK 05 AUDIO
TITLE "Lobo Bobo"
PERFORMER "Rosa Passos"
ISRC USSM10404602
INDEX 01 00:00:00
FILE "06 - O pato.wav" WAVE
TRACK 06 AUDIO
TITLE "O pato"
PERFORMER "Rosa Passos"
ISRC USSM10404604
INDEX 01 00:00:00
FILE "07 - Retrato em branco e preto.wav" WAVE
TRACK 07 AUDIO
TITLE "Retrato em branco e preto"
PERFORMER "Rosa Passos"
ISRC USSM10404601
INDEX 01 00:00:00
FILE "08 - Eu sambo mesmo.wav" WAVE
TRACK 08 AUDIO
TITLE "Eu sambo mesmo"
PERFORMER "Rosa Passos"
ISRC USSM10404595
INDEX 01 00:00:00
FILE "09 - Essa e pr'o Joao.wav" WAVE
TRACK 09 AUDIO
TITLE "Essa e pr'o Joao"
PERFORMER "Rosa Passos"
ISRC USSM10404603
INDEX 01 00:00:00
FILE "10 - Que reste-t-il de nos amours (duet with Henri Salvador).wav" WAVE
TRACK 10 AUDIO
TITLE "Que reste-t-il de nos amours (duet with Henri Salvador)"
PERFORMER "Rosa Passos"
ISRC USSM10404605
INDEX 01 00:00:00
FILE "11 - S'Wonderful.wav" WAVE
TRACK 11 AUDIO
TITLE "S'Wonderful"
PERFORMER "Rosa Passos"
ISRC USSM10404597
INDEX 01 00:00:00
TRACK 12 AUDIO
TITLE "Chega de saudade (with Yo-Yo Ma)"
PERFORMER "Rosa Passos"
ISRC USSM10302461
INDEX 00 04:27:50
FILE "12 - Chega de saudade (with Yo-Yo Ma).wav" WAVE
INDEX 01 00:00:00
FILE "13 - Triste.wav" WAVE
TRACK 13 AUDIO
TITLE "Triste"
PERFORMER "Rosa Passos"
ISRC USSM10404599
INDEX 01 00:00:00
TRACK 14 AUDIO
TITLE "Wave (duet with Henri Salvador)"
PERFORMER "Rosa Passos"
ISRC USSM10404824
INDEX 00 04:11:55
FILE "14 - Wave (duet with Henri Salvador).wav" WAVE
INDEX 01 00:00:00
 
Отчет CUETools
[CUETools log; Date: 26.06.2016 15:49:13; Version: 2.1.5]
[CTDB TOCID: QlKHU2oL9V_fpNknHhzakEbzfjE-] found.
Track | CTDB Status
1 | (4/4) Accurately ripped
2 | (4/4) Accurately ripped
3 | (4/4) Accurately ripped
4 | (4/4) Accurately ripped
5 | (4/4) Accurately ripped
6 | (4/4) Accurately ripped
7 | (4/4) Accurately ripped
8 | (4/4) Accurately ripped
9 | (4/4) Accurately ripped
10 | (4/4) Accurately ripped
11 | (4/4) Accurately ripped
12 | (3/4) Accurately ripped
13 | (4/4) Accurately ripped
14 | (4/4) Accurately ripped
[AccurateRip ID: 001f6937-014c3e97-cd0dca0e] found.
Track [ CRC | V2 ] Status
01 [c0eb8597|af687308] (2+4/6) Accurately ripped
02 [6cf83172|714a2cef] (2+4/6) Accurately ripped
03 [3e369080|831685d3] (2+4/6) Accurately ripped
04 [17007c50|d9b83c17] (2+4/6) Accurately ripped
05 [31041308|d9f40fc6] (2+4/6) Accurately ripped
06 [fffce067|0e1bdf54] (2+4/6) Accurately ripped
07 [3dfb6c56|3305d6a6] (2+4/6) Accurately ripped
08 [f4c2d21e|5c0ca474] (2+4/6) Accurately ripped
09 [ed8cb160|eef6acef] (2+4/6) Accurately ripped
10 [359b4385|482f0c03] (2+4/6) Accurately ripped
11 [d6565d3f|a6f93d40] (2+4/6) Accurately ripped
12 [a3cc9736|cc332a13] (2+4/6) Accurately ripped
13 [f26b2b0b|967b22d1] (2+4/6) Accurately ripped
14 [8a906344|43c66ad1] (2+4/6) Accurately ripped
Track Peak [ CRC32 ] [W/O NULL] [ LOG ]
-- 100,0 [445841A1] [34CA8622]
01 100,0 [AF740FBF] [A33A92CF] CRC32
02 100,0 [E1E0D30B] [9A5D3391] CRC32
03 100,0 [EDC3D0E6] [950C2E2A] CRC32
04 100,0 [306719DC] [2CF48DBF] CRC32
05 100,0 [836E9A3B] [4ED48BA1] CRC32
06 100,0 [E66C9C35] [5E8D4064] CRC32
07 100,0 [550CC9E1] [CED9DBE1] CRC32
08 100,0 [9FB3A80A] [90300ABD] CRC32
09 100,0 [709B7FBA] [525FE15B] CRC32
10 100,0 [0CAB736F] [E93C0B55] CRC32
11 100,0 [A3B671B8] [A8D322CD] CRC32
12 93,6 [A7B55103] [B6F0B69B] CRC32
13 100,0 [6D718A22] [D95AF2B8] CRC32
14 100,0 [58432147] [1C0CB460] CRC32
 
Review by Elliott Simon
Recent projects with cellist Yo-Yo Ma and bassist Ron Carter have given Brazilian vocalist/guitarist Rosa Passos wider and much deserved recognition. With the release of Amorosa, the long time queen of Brazilian bossa nova has offered up one of the most titillating CDs of the year.
Amorosa features new arrangements of songs associated with Antonio Carlos Jobim and João Gilberto, two seminal figures in the creation of bossa nova from samba and jazz. But most importantly, it allows Passos to highlight vocal and instrumental skills that exude a cultured yet innocent sensuality. Ms. Passos has chosen wisely in keeping percussionist Cyro Baptista as part of her ensemble. His rhythms, along with work by drummer Paulo Braga, pianist Helio Alves and bassist Paulo Palulelli, set up a delicate backdrop for her perfect guitar and quietly enchanting vocals as she conveys the graceful interplay of emotions that make bossa nova so alluring. Joining the core rhythm section on various cuts is Rodrigo Ursaia, who, like Stan Getz, shows how sax and bossa nova were made for each other. Likewise, clarinetist Paquito D'Rivera artfully blends a touch of swing with these rhythms on the bouncy "O Pato."
It is Passos, however, who through her combination of vocal quality and ideal phrasing, be it on pieces like the smoothly self-composed tribute "Essa E Pr'o Joáo," the quickly moving "Eu Sambo Mesmo," or her lushly romantic rendering of the classic "Besame Mucho" turns this into such an arresting session. Bonuses include a duet with 87-year-old French vocalist Henri Salvador and an appearance by Yo-Yo Ma on Jobim's "Chega De Saudade."
 
Состав
Rosa Passos - vocals, guitar
Helio Alves - piano
Paulo Paulelli - bass
Paulo Braga - drums
Cyro Baptista - percussion
with special guests:
Paquito D'Rivera - clarinet
Rodrigo Ursaia - tenor saxophone
Yo-Yo Ma - cello
Henri Salvador - vocals
Recorded at Avatar Studios, New York; Capitol Studios, Los Angeles, CA; Right Track Studio, New York; Studio du Palais des Congres, Paris in 2002-2004.
21:37
274
Нет комментариев. Ваш будет первым!