Поиск

(Cuban Jazz, Latin Jazz, Salsa) Jack Costanzo and his Latin Orchestra - Mr. Bongo plays Cha Cha Cha (1957) {Palladium Records PCD-163, Switzerland} - 1993, APE (image+.cue) lossless

(Cuban Jazz, Latin Jazz, Salsa) Jack Costanzo and his Latin Orchestra - Mr. Bongo plays Cha Cha Cha (1957) {Palladium Records PCD-163, Switzerland} - 1993, APE (image+.cue) lossless
Треклист:
Jack Costanzo and his Latin Orchestra - Mr. Bongo plays Cha Cha Cha
Mr. Bongo Plays Hi-Fi Cha Cha
Жанр: Cuban Jazz, Latin Jazz, Salsa
Страна-производитель диска: Switzerland
Год издания диска: 1993
Издатель (лейбл): Palladium Records (Palladium Latin Jazz & Dance Records)
Номер по каталогу: PCD-163
Страна исполнителей: USA
Аудио кодек: APE (*.ape)
Тип рипа: image+.cue
Битрейт аудио: lossless
Продолжительность: 00:37:12
Источник (релизер): barin99
Наличие сканов в содержимом раздачи: да
Треклист:
01. Quiere 3:02
02. Mira Como Los Pollos 3:11
03. Jarochita 3:13
04. Rabo É Mula 3:26
05. Silencio 2:58
06. Atu 2:40
07. Que Dichoso Es 3:37
08. Ñaña Sere 3:34
09. Jack, Jack, Jack 2:53
10. Bongó 2:21
11. Mary Lou 3:13
12. La Loca 2:59
Recorded in Hollywood, 1957
Jack Costanzo — Bongos
Paul Lopez — Trumpet
Tony Terran — Trumpet
Jimmy Salko — Trumpet
Andy Thomas — Piano
Tony Reyes — Bass
Mike Pagani — Drums
Ray Rivera — Congas
Kaskara — Vocals
Marda Saxon — Vocals
 
Лог создания рипа (EAC Log)
Exact Audio Copy V0.99 prebeta 4 from 23. January 2008
EAC extraction logfile from 15. October 2009, 21:26
Jack Constanzo / And His Latin Orchestra
Used drive : HL-DT-STRW/DVD GCC-4242N Adapter: 1 ID: 0
Read mode : Secure
Utilize accurate stream : Yes
Defeat audio cache : Yes
Make use of C2 pointers : No
Read offset correction : 102
Overread into Lead-In and Lead-Out : No
Fill up missing offset samples with silence : Yes
Delete leading and trailing silent blocks : No
Null samples used in CRC calculations : Yes
Used interface : Native Win32 interface for Win NT & 2000
Used output format : Internal WAV Routines
Sample format : 44.100 Hz; 16 Bit; Stereo
TOC of the extracted CD
Track | Start | Length | Start sector | End sector
---------------------------------------------------------
1 | 0:00.33 | 3:02.10 | 33 | 13692
2 | 3:02.43 | 3:11.52 | 13693 | 28069
3 | 6:14.20 | 3:13.25 | 28070 | 42569
4 | 9:27.45 | 3:26.35 | 42570 | 58054
5 | 12:54.05 | 2:58.18 | 58055 | 71422
6 | 15:52.23 | 2:40.47 | 71423 | 83469
7 | 18:32.70 | 3:37.63 | 83470 | 99807
8 | 22:10.58 | 3:34.07 | 99808 | 115864
9 | 25:44.65 | 2:53.53 | 115865 | 128892
10 | 28:38.43 | 2:21.60 | 128893 | 139527
11 | 31:00.28 | 3:13.12 | 139528 | 154014
12 | 34:13.40 | 2:59.63 | 154015 | 167502
Range status and errors
Selected range
Filename C:\_\EAC_Out\Out\Jack Constanzo - And His Latin Orchestra\Jack Constanzo - And His Latin Orchestra.wav
Peak level 80.3 %
Range quality 100.0 %
Copy CRC 5FF7FF58
Copy OK
No errors occurred
AccurateRip summary
Track 1 accurately ripped (confidence 1) [481F1633]
Track 2 accurately ripped (confidence 1) [F75710A9]
Track 3 accurately ripped (confidence 1) [56463A1E]
Track 4 accurately ripped (confidence 1) [A3C19D70]
Track 5 accurately ripped (confidence 1) [2B05585B]
Track 6 accurately ripped (confidence 1) [48999BCE]
Track 7 accurately ripped (confidence 1) [147AEDA8]
Track 8 accurately ripped (confidence 1) [9AC475F1]
Track 9 accurately ripped (confidence 1) [D2F528C9]
Track 10 accurately ripped (confidence 1) [F8572FC9]
Track 11 accurately ripped (confidence 1) [8854AB6F]
Track 12 accurately ripped (confidence 1) [BFBA6E0C]
All tracks accurately ripped
End of status report
 
Содержание индексной карты (.CUE)
REM GENRE Salsa
REM DATE 1957
REM DISCID A008B90C
REM COMMENT "ExactAudioCopy v0.99pb4"
PERFORMER "Jack Constanzo"
TITLE "And His Latin Orchestra"
FILE "Jack Constanzo - And His Latin Orchestra.ape" WAVE
TRACK 01 AUDIO
TITLE "Quiere"
PERFORMER "Jack Constanzo"
INDEX 00 00:00:00
INDEX 01 00:00:33
TRACK 02 AUDIO
TITLE "Mira Como Los Pollos"
PERFORMER "Jack Constanzo"
INDEX 00 03:01:43
INDEX 01 03:02:43
TRACK 03 AUDIO
TITLE "Jarochita"
PERFORMER "Jack Constanzo"
INDEX 01 06:14:20
TRACK 04 AUDIO
TITLE "Rabo E Mula"
PERFORMER "Jack Constanzo"
INDEX 01 09:27:45
TRACK 05 AUDIO
TITLE "Silencio"
PERFORMER "Jack Constanzo"
INDEX 01 12:54:05
TRACK 06 AUDIO
TITLE "Atu"
PERFORMER "Jack Constanzo"
INDEX 01 15:52:23
TRACK 07 AUDIO
TITLE "Que Dichoso Es"
PERFORMER "Jack Constanzo"
INDEX 00 18:31:70
INDEX 01 18:32:70
TRACK 08 AUDIO
TITLE "Сaсa Sere"
PERFORMER "Jack Constanzo"
INDEX 00 22:09:58
INDEX 01 22:10:58
TRACK 09 AUDIO
TITLE "Jack, Jack, Jack"
PERFORMER "Jack Constanzo"
INDEX 00 25:43:65
INDEX 01 25:44:65
TRACK 10 AUDIO
TITLE "Bongo"
PERFORMER "Jack Constanzo"
INDEX 00 28:37:43
INDEX 01 28:38:43
TRACK 11 AUDIO
TITLE "Mary Lou"
PERFORMER "Jack Constanzo"
INDEX 00 30:59:28
INDEX 01 31:00:28
TRACK 12 AUDIO
TITLE "La Loca"
PERFORMER "Jack Constanzo"
INDEX 00 34:12:40
INDEX 01 34:13:40
 
AMG
"Unlike most of Costanzo's other records, Mr. Bongo Plays Hi-Fi Cha Cha is real Cuban music. The vocalists, featured on all twelve tracks, either solo or in tandem, are the true stars. Costanzo's bongos figure high in the mix, of course, but not to the point of severe distraction or camp. Kaskara had performed with Perez Prado and Rene Touzet before joining Costanzo, so there is no question about his credentials. This one cooks. Except for two cheesy-but-delightful, syncopated cha cha chas sung in English ("Jack, Jack, Jack" being a tribute to the master), it sounds more like salsa than cha cha cha. There is a serious, uptempo, monster session beneath the jacket of what looks like just a budget-label trifle."
Доп. информация: Великолепный диск!
22:19
268
Нет комментариев. Ваш будет первым!