Поиск

(World Fusion, Ethnic, Tsugaru Shamisen, Violin) Shinichi Kinoshita (Japan) & Roby Lakatos (Hungary) - SO GU Kinoshita Meets Lakatos {Avex IO IOCD 20031, Japan} - 2002, APE (image+.cue) lossless

(World Fusion, Ethnic, Tsugaru Shamisen, Violin) Shinichi Kinoshita (Japan) & Roby Lakatos (Hungary) - SO GU Kinoshita Meets Lakatos {Avex IO IOCD 20031, Japan} - 2002, APE (image+.cue) lossless
Треклист:
Shinichi Kinoshita (Japan) & Roby Lakatos (Hungary) - SO GU Kinoshita Meets Lakatos
Жанр: World Fusion, Ethnic, Tsugaru Shamisen, Violin
Страна-производитель диска: Japan
Год издания диска: 2002
Издатель (лейбл): Prime Directions, Inc. / Avex IO
Номер по каталогу: IOCD 20031
Аудио кодек: APE (*.ape)
Тип рипа: image+.cue
Битрейт аудио: lossless
Продолжительность: 00:53:16
Источник (релизер): barin99
Наличие сканов в содержимом раздачи: да
Треклист:
1. Csardas
2. Hanasachi
3. On The Foot of Csitari Mountain
4. Hora
5. Kobe Rumba
6. So Gu
7. Ichie
"Japanese (shamisen) meets gypsy (violin). Two masters."
Shinichi Kinoshita - Tsugaru Shamisen
Roby Lakatos - Violin
Kalman Cseki - Piano
Oskar Nemeth - Bass
Kiyohiko Semba - Drums, Percussions
 
Лог создания рипа (EAC Log)
Exact Audio Copy V0.99 prebeta 5 from 4. May 2009
EAC extraction logfile from 13. June 2011, 18:17
Shinichi Kinoshita & Roby Lakatos / Kinoshita Meets Lakatos
Used drive : TSSTcorpDVD+-RW TS-U633A Adapter: 0 ID: 1
Read mode : Secure
Utilize accurate stream : Yes
Defeat audio cache : Yes
Make use of C2 pointers : No
Read offset correction : 6
Overread into Lead-In and Lead-Out : No
Fill up missing offset samples with silence : Yes
Delete leading and trailing silent blocks : No
Null samples used in CRC calculations : Yes
Used interface : Native Win32 interface for Win NT & 2000
Used output format : Internal WAV Routines
Sample format : 44.100 Hz; 16 Bit; Stereo
TOC of the extracted CD
Track | Start | Length | Start sector | End sector
---------------------------------------------------------
1 | 0:00.00 | 7:51.62 | 0 | 35386
2 | 7:51.62 | 7:08.28 | 35387 | 67514
3 | 15:00.15 | 8:20.47 | 67515 | 105061
4 | 23:20.62 | 8:02.00 | 105062 | 141211
5 | 31:22.62 | 6:01.28 | 141212 | 168314
6 | 37:24.15 | 10:40.37 | 168315 | 216351
7 | 48:04.52 | 5:11.35 | 216352 | 239711
8 | 55:48.12 | 18:09.63 | 251112 | 332849
Range status and errors
Selected range
Filename C:\_Arc\BARIN99\Shinichi Kinoshita & Roby Lakatos - Kinoshita Meets Lakatos\Shinichi Kinoshita & Roby Lakatos - Kinoshita Meets Lakatos.wav
Peak level 99.8 %
Range quality 100.0 %
Copy CRC C3BF2DAA
Copy OK
No errors occurred
AccurateRip summary
Track 1 cannot be verified as accurate (confidence 1) [AE2EC1D3], AccurateRip returned [E8B026DB]
Track 2 cannot be verified as accurate (confidence 1) [35E33194], AccurateRip returned [4265468C]
Track 3 cannot be verified as accurate (confidence 1) [5948953B], AccurateRip returned [39E249F8]
Track 4 cannot be verified as accurate (confidence 1) [24B4567C], AccurateRip returned [6EA84F4D]
Track 5 cannot be verified as accurate (confidence 1) [417BD413], AccurateRip returned [6C05B6FA]
Track 6 cannot be verified as accurate (confidence 1) [6BE47075], AccurateRip returned [7F8C8BFA]
Track 7 cannot be verified as accurate (confidence 1) [1C997E40], AccurateRip returned [BD02D5FD]
No tracks could be verified as accurate
You may have a different pressing from the one(s) in the database
End of status report
 
Содержание индексной карты (.CUE)
REM GENRE Ethnic
REM DATE 2002
REM DISCID 68115608
REM COMMENT "ExactAudioCopy v0.99pb5"
PERFORMER "Shinichi Kinoshita & Roby Lakatos"
TITLE "Kinoshita Meets Lakatos"
FILE "Shinichi Kinoshita & Roby Lakatos - Kinoshita Meets Lakatos.ape" WAVE
TRACK 01 AUDIO
TITLE "Csardas"
PERFORMER "Shinichi Kinoshita & Roby Lakatos"
INDEX 01 00:00:00
TRACK 02 AUDIO
TITLE "Hanasachi"
PERFORMER "Shinichi Kinoshita & Roby Lakatos"
INDEX 00 07:47:52
INDEX 01 07:51:62
TRACK 03 AUDIO
TITLE "On The Foot of Csitari Mountain"
PERFORMER "Shinichi Kinoshita & Roby Lakatos"
INDEX 00 14:56:42
INDEX 01 15:00:15
TRACK 04 AUDIO
TITLE "Hora"
PERFORMER "Shinichi Kinoshita & Roby Lakatos"
INDEX 00 23:17:10
INDEX 01 23:20:62
TRACK 05 AUDIO
TITLE "Kobe Rumba"
PERFORMER "Shinichi Kinoshita & Roby Lakatos"
INDEX 00 31:18:52
INDEX 01 31:22:62
TRACK 06 AUDIO
TITLE "So Gu"
PERFORMER "Shinichi Kinoshita & Roby Lakatos"
INDEX 00 37:20:42
INDEX 01 37:24:15
TRACK 07 AUDIO
TITLE "Ichie"
PERFORMER "Shinichi Kinoshita & Roby Lakatos"
INDEX 00 47:59:42
INDEX 01 48:04:52
 
Japansclassic
"Shinichi Kinoshita, the leading tsugaru shamisen player among the younger generation, started learning shamisen at the age of 10 from his father who also was an artist.
While tsugaru shamisen is a traditional instrument, Shinichi combined shamisen with rock and jazz and made a completely original music. In 1993, he started "Kinoshita Shinichi Group" composed of tsugaru shamisen, percussion, keyboard, electric guitar, and wadaiko (Japanese drum) and made "Tsugaru Shamisen Rock".
In November 2001, Shinichi released two successful tsugaru shamisen albums, "Den" and "Kai" from avex io. "Den" features traditional repertoire while "Kai" features what Shinichi calls "tsugaru fusion". In June 2002, released "SOGU", an album made with a collaboration with Hungarian violinist Roby Lakatos and following year, he released another album, "Show" which features traditional tsugaru shamisen.
While releasing albums, Shinichi also made nationwide tour as well as performed in different countries which all won high acclaim. In 2002, Shinichi joined Eitetsu Hayashi's (a renowned Japanese wadaiko player) US tour as well as made Central/South America tour in six countries. In 2003, performed at International Istanbul Music Festival and also gave several concerts at England."
 
Wikipedia
"Roby Lakatos, the “devil’s fiddler”, is a gypsy violinist from Hungary. He is renowned for his mix of classical music with Hungarian-gypsy music and jazz themes. Lakatos was born in 1965 into the legendary family of gypsy violinists descended from Janos Bihari, “King of Gypsy Violinists”. He was introduced to music as a child and at age nine he made his public debut as first violin in a gypsy band. His musicianship was learnt not only with his own family, but also at the Béla Bartók Conservatory of Budapest, where he won the first prize for classical violin in 1984. Between 1986 and 1996, he and his ensemble played at "Les Ateliers de La Grande Ile" in Brussels. He has collaborated with Vadim Repin and Stéphane Grappelli. It is claimed Lakatos' playing was greatly admired by Sir Yehudi Menuhin, who always made a point of visiting the club in Brussels to hear him. In March 2004, Lakatos appeared to great acclaim with the London Symphony Orchestra in the orchestra’s “Genius of the Violin” festival alongside Maxim Vengerov."
Доп. информация: Насладитесь...
22:20
317
Нет комментариев. Ваш будет первым!