Поиск

(Crossover Jazz, Jazz-Pop, Guitar Jazz, Film Music) Earl Klugh Trio - Sounds And Visions Vol. 2 - 1993, FLAC (image+.cue), lossless

Треклист:
Earl Klugh Trio - Sounds And Visions Vol. 2
Жанр: Crossover Jazz, Jazz-Pop, Guitar Jazz, Film Music
Год выпуска диска: 1993
Производитель диска: Россия
Аудио кодек: FLAC
Тип рипа: image+.cue
Битрейт аудио: lossless
Продолжительность: 54:59
Происxождение рипа: Собственный рип из личной коллекции
Трэклист:
1. Prelude 0:38
2. Goldfinger (John Barry) 4:55
3. Orchestra Intro 1:13
4. Maybe September [From the Motion Picture "The Oscar"] (J. Livingston, R. Evans, P. Faith) 3:22
5. Orchestra Intro 1:11
6. Theme from "The Cincinnati Kid" (Lalo Schifrin) 4:55
7. Orchestra Intro 0:49
8. Secret Love [From the Motion Picture "Calamity Jane"] (P.F. Webster, S. Fain) 6:58
9. Jo Ann's Song [From the Motion Picture "Tequila Sunrise"] (Dave Grusin) 5:27
10. Now We're One [From the Motion Picture "Truck Turner"] (Isaac Hayes) 5:19
11. Interlude in E 0:41
12. Barefoot in the Park (J. Mercer, N. Hefti) 3:36
13. Orchestra Intro 0:29
14. His Eyes, Her Eyes [From the Motion Picture "The Thomas Crown Affair"] (Michel Legrand) 4:36
15. Love Theme from "The Carpet Baggers" (Elmer Bernstein) 5:14
16. Interlude in F 0:34
17. Theme from "The Deadly Affair" (Quincy Jones) 3:49
18. Postlude 1:07
Доп. информация:
Исполнители:
Earl Klugh - Guitar
Gene Dunlap - Drums
Ralphe Armstrong - Bass
The Royal Philharmonic Orchestra arranged and conducted by Don Sebesky
 
EAC Report
Exact Audio Copy V0.99 prebeta 4 from 23. January 2008
Отчёт EAC об извлечении, выполненном 14. апреля 2010, 8:11
Earl Klugh / Sounds And Visions Vol. 2
Дисковод: ASUS DRW-20B1LT Adapter: 4 ID: 0
Режим чтения : Достоверность
Использование точного потока : Да
Отключение кэша аудио : Да
Использование указателей C2 : Нет
Коррекция смещения при чтении : 6
Способность читать области Lead-in и Lead-out : Нет
Заполнение пропущенных сэмплов тишиной : Да
Удаление блоков с тишиной в начале и конце : Нет
При вычислениях CRC использовались нулевые сэмплы : Да
Интерфейс : Встроенный Win32-интерфейс для Win NT/2000
Выходной формат : Пользовательский кодировщик
Выбранный битрейт : 768 kBit/s
Качество : Высокий
Добавление ID3-тэга : Нет
Утилита сжатия : D:\Program Files\Exact Audio Copy\Flac\Flac.exe
Дополнительные параметры : -8 --delete-input-file -o "D:\CDImage.flac" -V %s
TOC извлечённого CD
Трек | Старт | Длительность | Начальный сектор | Конечный сектор
---------------------------------------------------------------------
1 | 0:00.00 | 0:39.15 | 0 | 2939
2 | 0:39.15 | 4:55.10 | 2940 | 25074
3 | 5:34.25 | 1:12.55 | 25075 | 30529
4 | 6:47.05 | 3:22.73 | 30530 | 45752
5 | 10:10.03 | 1:10.10 | 45753 | 51012
6 | 11:20.13 | 4:54.42 | 51013 | 73104
7 | 16:14.55 | 0:48.35 | 73105 | 76739
8 | 17:03.15 | 6:58.05 | 76740 | 108094
9 | 24:01.20 | 5:28.13 | 108095 | 132707
10 | 29:29.33 | 5:20.70 | 132708 | 156777
11 | 34:50.28 | 0:40.72 | 156778 | 159849
12 | 35:31.25 | 3:36.60 | 159850 | 176109
13 | 39:08.10 | 0:28.35 | 176110 | 178244
14 | 39:36.45 | 4:36.15 | 178245 | 198959
15 | 44:12.60 | 5:14.20 | 198960 | 222529
16 | 49:27.05 | 0:33.43 | 222530 | 225047
17 | 50:00.48 | 3:49.05 | 225048 | 242227
18 | 53:49.53 | 1:07.55 | 242228 | 247307
Характеристики диапазона извлечения и сообщения об ошибках
Выбранный диапазон
Имя файла D:\Earl Klugh - Sounds And Visions Vol. 2.wav
Пиковый уровень 97.3 %
Качество диапазона 100.0 %
CRC теста CDCC9920
CRC копии CDCC9920
Копирование... OK
Ошибок не произошло
AccurateRip: сводка
Трек 1 точность не определена (достоверность 3) [BC67BDCF], AccurateRip вернул [6A95CFBD]
Трек 2 точность не определена (достоверность 3) [1D34C7D1], AccurateRip вернул [F5576B8C]
Трек 3 точность не определена (достоверность 3) [0B3CCFF9], AccurateRip вернул [CC9E533F]
Трек 4 точность не определена (достоверность 3) [1BDC3C21], AccurateRip вернул [BE5C6F7D]
Трек 5 точность не определена (достоверность 3) [EB52213E], AccurateRip вернул [59AC95ED]
Трек 6 точность не определена (достоверность 3) [AEECCB51], AccurateRip вернул [9ADEDD0C]
Трек 7 точность не определена (достоверность 3) [D14ED10C], AccurateRip вернул [DB8731F3]
Трек 8 точность не определена (достоверность 3) [30BD03DF], AccurateRip вернул [29C209A5]
Трек 9 точность не определена (достоверность 3) [3AB53307], AccurateRip вернул [5A93DF0E]
Трек 10 точность не определена (достоверность 3) [F8808772], AccurateRip вернул [F474DD86]
Трек 11 точность не определена (достоверность 3) [5D86CFBB], AccurateRip вернул [21CFFE9F]
Трек 12 точность не определена (достоверность 3) [126B0A77], AccurateRip вернул [5E9FC27E]
Трек 13 точность не определена (достоверность 3) [9EFCD729], AccurateRip вернул [C2E71FD4]
Трек 14 точность не определена (достоверность 3) [C1C48E3F], AccurateRip вернул [B4587881]
Трек 15 точность не определена (достоверность 3) [1EE353CC], AccurateRip вернул [5FF36E17]
Трек 16 точность не определена (достоверность 3) [B0FC3813], AccurateRip вернул [F3FAC388]
Трек 17 точность не определена (достоверность 3) [A975D653], AccurateRip вернул [DDE7B8F8]
Трек 18 точность не определена (достоверность 3) [575149F9], AccurateRip вернул [B7752529]
Ни один трек не прошёл проверки на точность
В вашей базе может быть иной вариант штамповки диска
Конец отчёта
Приватный:
Нет (DHT включён)
Размер:
319.06 Мб (334,556,447 байт) » файлов: 8
Участники:
0 раздают, 0 качают (0 участников всего)
Внешние участники:
1 раздают, 0 качают (1 участников всего) [ Обновить ]
For power users only: no seeders - write to support@pro-jazz.com. Для power user: нет сидеров - пишите на support@pro-jazz.com.
21:15
150
Нет комментариев. Ваш будет первым!