Поиск

(Contemporary Jazz, Crossover Jazz, Acoustic Guitar Solo) Earl Klugh - Naked Guitar - 2005, FLAC (image+.cue), lossless

Треклист:
Earl Klugh - Naked Guitar
Жанр: Contemporary Jazz, Crossover Jazz, Acoustic Guitar Solo
Год выпуска диска: 2005
Производитель диска: Россия
Аудио кодек: FLAC
Тип рипа: image+.cue
Битрейт аудио: lossless
Продолжительность: 55:39
Происxождение рипа: Собственный рип из личной коллекции
Трэклист:
1. The Night Has Thousand Eyes (Brainin, Bernier) 4:01
2. Baubles, Bangles And Beads (Forrest, Wright) 4:56
3. Serenata (Anderson, Parish) 3:01
4. Alice In Wonderland (Fain, Hilliard) 2:35
5. In The Moonlight (Bergman, Bergman, Legrand) 5:27
6. The Summer Knows (Bergman, Bergman, Legrand) 4:24
7. Ding Dong The Witch Is Dead (Arlen, Harburg) 2:30
8. Who Can I Turn To (When Nobody Needs Me) (Bricusse, Newley) 3:32
9. On A Clear Day (Lane, Lerner) 4:11
10. Be My Love (Brodszky, Cahn) 4:00
11. I Want To Hold Your Hand (Lennon, McCartney) 5:01
12. All The Things You Are (Hammerstein, Kern) 4:52
13. Moon River (Mancini, Mercer) 3:54
14. Angelina (Klugh) 3:08
Доп. информация:
 
EAC Report
Exact Audio Copy V0.99 prebeta 4 from 23. January 2008
Отчёт EAC об извлечении, выполненном 15. апреля 2010, 20:54
Earl Klugh / Naked Guitar
Дисковод: ASUS DRW-20B1LT Adapter: 4 ID: 0
Режим чтения : Достоверность
Использование точного потока : Да
Отключение кэша аудио : Да
Использование указателей C2 : Нет
Коррекция смещения при чтении : 6
Способность читать области Lead-in и Lead-out : Нет
Заполнение пропущенных сэмплов тишиной : Да
Удаление блоков с тишиной в начале и конце : Нет
При вычислениях CRC использовались нулевые сэмплы : Да
Интерфейс : Встроенный Win32-интерфейс для Win NT/2000
Выходной формат : Пользовательский кодировщик
Выбранный битрейт : 768 kBit/s
Качество : Высокий
Добавление ID3-тэга : Нет
Утилита сжатия : D:\Program Files\Exact Audio Copy\Flac\Flac.exe
Дополнительные параметры : -8 --delete-input-file -o "D:\CDImage.flac" -V %s
TOC извлечённого CD
Трек | Старт | Длительность | Начальный сектор | Конечный сектор
---------------------------------------------------------------------
1 | 0:00.00 | 4:01.22 | 0 | 18096
2 | 4:01.22 | 4:56.43 | 18097 | 40339
3 | 8:57.65 | 3:01.48 | 40340 | 53962
4 | 11:59.38 | 2:35.34 | 53963 | 65621
5 | 14:34.72 | 5:27.60 | 65622 | 90206
6 | 20:02.57 | 4:24.40 | 90207 | 110046
7 | 24:27.22 | 2:30.54 | 110047 | 121350
8 | 26:58.01 | 3:32.55 | 121351 | 137305
9 | 30:30.56 | 4:11.70 | 137306 | 156200
10 | 34:42.51 | 4:00.59 | 156201 | 174259
11 | 38:43.35 | 5:01.64 | 174260 | 196898
12 | 43:45.24 | 4:52.32 | 196899 | 218830
13 | 48:37.56 | 3:54.06 | 218831 | 236386
14 | 52:31.62 | 3:08.01 | 236387 | 250487
Характеристики диапазона извлечения и сообщения об ошибках
Выбранный диапазон
Имя файла D:\Earl Klugh - Naked Guitar.wav
Пиковый уровень 95.1 %
Качество диапазона 100.0 %
CRC теста AD2BF194
CRC копии AD2BF194
Копирование... OK
Ошибок не произошло
AccurateRip: сводка
Трек 1 точность не определена (достоверность 22) [34429D97], AccurateRip вернул [928FEF24]
Трек 2 точность не определена (достоверность 22) [B1AE83B8], AccurateRip вернул [3D47701B]
Трек 3 точность не определена (достоверность 22) [FC8B1B03], AccurateRip вернул [4AD04C23]
Трек 4 точность не определена (достоверность 22) [F04CB5EC], AccurateRip вернул [4C351A30]
Трек 5 точность не определена (достоверность 22) [47FF6E83], AccurateRip вернул [FADC6FBB]
Трек 6 точность не определена (достоверность 22) [52D8C7F6], AccurateRip вернул [7C0AD51A]
Трек 7 точность не определена (достоверность 22) [07E3B017], AccurateRip вернул [1A22D7CB]
Трек 8 точность не определена (достоверность 22) [EEC4B7AF], AccurateRip вернул [5C4E54C3]
Трек 9 точность не определена (достоверность 22) [C3124D83], AccurateRip вернул [286F7CEF]
Трек 10 точность не определена (достоверность 22) [0B168B08], AccurateRip вернул [DAC4EA28]
Трек 11 точность не определена (достоверность 22) [B3C8F4C5], AccurateRip вернул [7E9B7D19]
Трек 12 точность не определена (достоверность 22) [857DF8F1], AccurateRip вернул [2B3D97E5]
Трек 13 точность не определена (достоверность 22) [46430405], AccurateRip вернул [2EC20C74]
Трек 14 точность не определена (достоверность 22) [E41E3FF2], AccurateRip вернул [DF9BB8FB]
Ни один трек не прошёл проверки на точность
В вашей базе может быть иной вариант штамповки диска
Конец отчёта
Приватный:
Нет (DHT включён)
Размер:
240.56 Мб (252,242,051 байт) » файлов: 9
Участники:
0 раздают, 0 качают (0 участников всего)
Внешние участники:
2 раздают, 1 качают (3 участников всего) [ Обновить ]
For power users only: no seeders - write to support@pro-jazz.com. Для power user: нет сидеров - пишите на support@pro-jazz.com.
21:16
176
Нет комментариев. Ваш будет первым!