Поиск

(Contemporary R&B/Retro Soul) [CD] Terisa Griffin - Revival Of Soul - 2015, FLAC (tracks+.cue), lossless

(Contemporary R&B/Retro Soul) [CD] Terisa Griffin - Revival Of Soul - 2015, FLAC (tracks+.cue), lossless
Треклист:
Terisa Griffin / Revival Of Soul (2015)
Жанр: Contemporary R&B/Retro Soul
Носитель: CD
Страна-производитель диска (релиза): USA
Год издания: 2015
Издатель (лейбл): My Naked Soul Productions
Страна исполнителя (группы): USA
Аудиокодек: FLAC (*.flac)
Тип рипа: tracks+.cue
Битрейт аудио: lossless
Продолжительность: 01:03:37
Источник (релизер): JET1
Наличие сканов в содержимом раздачи: да
Треклист:
01 Save Me (A Woman's Testimony)
02 Intro Revival Interlude
03 Tonight Is the Night
04 Cotton Candy Kisses (Oral Pleasure)
05 Oh Me Oh My (I'm a Fool for You)
06 Revival Interlude (Love Look)
07 Naked
08 Distant Lover
09 Purple Like the Moon
10 Revival Interlude (Ain't Love Grand)
11 Swimming Higher
12 Talking About Love
13 Ain't No Need (Musician Song)
14 Revival of Soul (Reflection)
15 Revival of My Soul
 
Лог создания рипа
Exact Audio Copy V1.0 beta 3 from 29. August 2011
EAC extraction logfile from 13. February 2016, 16:46
Terisa Griffin / Revival of Soul
Used drive : GENERIC CDRCB05 Adapter: 4 ID: 0
Read mode : Secure
Utilize accurate stream : Yes
Defeat audio cache : Yes
Make use of C2 pointers : No
Read offset correction : 102
Overread into Lead-In and Lead-Out : No
Fill up missing offset samples with silence : Yes
Delete leading and trailing silent blocks : No
Null samples used in CRC calculations : Yes
Used interface : Native Win32 interface for Win NT & 2000
Gap handling : Appended to previous track
Used output format : User Defined Encoder
Selected bitrate : 1024 kBit/s
Quality : High
Add ID3 tag : No
Command line compressor : C:\Program Files\FLAC\flac.exe
Additional command line options : -8 -V -T "ARTIST=%artist%" -T "TITLE=%title%" -T "ALBUM=%albumtitle%" -T "DATE=%year%" -T "TRACKNUMBER=%tracknr%" -T "GENRE=%genre%" -T "PERFORMER=%albuminterpret%" -T "COMPOSER=%composer%" %haslyrics%--tag-from-file=LYRICS="%lyricsfile%"%haslyrics% -T "ALBUMARTIST=%albumartist%" -T "DISCNUMBER=%cdnumber%" -T "TOTALDISCS=%totalcds%" -T "TOTALTRACKS=%numtracks%" -T "COMMENT=%comment%" %source% -o %dest%
TOC of the extracted CD
Track | Start | Length | Start sector | End sector
---------------------------------------------------------
1 | 0:00.00 | 6:19.05 | 0 | 28429
2 | 6:19.05 | 1:47.31 | 28430 | 36485
3 | 8:06.36 | 5:07.04 | 36486 | 59514
4 | 13:13.40 | 4:55.48 | 59515 | 81687
5 | 18:09.13 | 4:52.27 | 81688 | 103614
6 | 23:01.40 | 1:10.13 | 103615 | 108877
7 | 24:11.53 | 4:48.02 | 108878 | 130479
8 | 28:59.55 | 5:28.13 | 130480 | 155092
9 | 34:27.68 | 5:34.32 | 155093 | 180174
10 | 40:02.25 | 1:28.36 | 180175 | 186810
11 | 41:30.61 | 4:50.17 | 186811 | 208577
12 | 46:21.03 | 5:12.65 | 208578 | 232042
13 | 51:33.68 | 5:33.39 | 232043 | 257056
14 | 57:07.32 | 1:25.72 | 257057 | 263503
15 | 58:33.29 | 5:03.35 | 263504 | 286263
Track 1
Filename G:\POSTS\Terisa Griffin - Revival Of Soul (2015)\01 - Save Me (A Woman's Testimony).wav
Pre-gap length 0:00:02.00
Peak level 98.8 %
Extraction speed 2.6 X
Track quality 100.0 %
Test CRC AF346FE3
Copy CRC AF346FE3
Track not present in AccurateRip database
Copy OK
Track 2
Filename G:\POSTS\Terisa Griffin - Revival Of Soul (2015)\02 - Intro Revival Interlude.wav
Pre-gap length 0:00:01.48
Peak level 98.8 %
Extraction speed 2.1 X
Track quality 100.0 %
Test CRC 225C89EF
Copy CRC 225C89EF
Track not present in AccurateRip database
Copy OK
Track 3
Filename G:\POSTS\Terisa Griffin - Revival Of Soul (2015)\03 - Tonight Is the Night.wav
Peak level 98.8 %
Extraction speed 2.5 X
Track quality 99.9 %
Test CRC 8B981666
Copy CRC 8B981666
Track not present in AccurateRip database
Copy OK
Track 4
Filename G:\POSTS\Terisa Griffin - Revival Of Soul (2015)\04 - Cotton Candy Kisses (Oral Pleasure).wav
Pre-gap length 0:00:02.33
Peak level 98.8 %
Extraction speed 3.2 X
Track quality 100.0 %
Test CRC 46BDEBCD
Copy CRC 46BDEBCD
Track not present in AccurateRip database
Copy OK
Track 5
Filename G:\POSTS\Terisa Griffin - Revival Of Soul (2015)\05 - Oh Me Oh My (I'm a Fool for You).wav
Pre-gap length 0:00:01.46
Peak level 86.1 %
Extraction speed 3.2 X
Track quality 100.0 %
Test CRC 92045D07
Copy CRC 92045D07
Track not present in AccurateRip database
Copy OK
Track 6
Filename G:\POSTS\Terisa Griffin - Revival Of Soul (2015)\06 - Revival Interlude (Love Look.wav
Pre-gap length 0:00:01.04
Peak level 98.8 %
Extraction speed 2.5 X
Track quality 100.0 %
Test CRC 8A71F1E5
Copy CRC 8A71F1E5
Track not present in AccurateRip database
Copy OK
Track 7
Filename G:\POSTS\Terisa Griffin - Revival Of Soul (2015)\07 - Naked.wav
Peak level 92.2 %
Extraction speed 3.6 X
Track quality 100.0 %
Test CRC 3F11DDC6
Copy CRC 3F11DDC6
Track not present in AccurateRip database
Copy OK
Track 8
Filename G:\POSTS\Terisa Griffin - Revival Of Soul (2015)\08 - Distant Lover.wav
Pre-gap length 0:00:01.04
Peak level 98.8 %
Extraction speed 3.9 X
Track quality 100.0 %
Test CRC 0CB50E75
Copy CRC 0CB50E75
Track not present in AccurateRip database
Copy OK
Track 9
Filename G:\POSTS\Terisa Griffin - Revival Of Soul (2015)\09 - Purple Like the Moon.wav
Pre-gap length 0:00:01.57
Peak level 98.8 %
Extraction speed 4.0 X
Track quality 100.0 %
Test CRC 7DB22DF0
Copy CRC 7DB22DF0
Track not present in AccurateRip database
Copy OK
Track 10
Filename G:\POSTS\Terisa Griffin - Revival Of Soul (2015)\10 - Revival Interlude (Ain't Love Grand).wav
Pre-gap length 0:00:00.30
Peak level 98.8 %
Extraction speed 3.3 X
Track quality 100.0 %
Test CRC 70041E28
Copy CRC 70041E28
Track not present in AccurateRip database
Copy OK
Track 11
Filename G:\POSTS\Terisa Griffin - Revival Of Soul (2015)\11 - Swimming Higher.wav
Peak level 98.8 %
Extraction speed 4.3 X
Track quality 100.0 %
Test CRC B2F534A7
Copy CRC B2F534A7
Track not present in AccurateRip database
Copy OK
Track 12
Filename G:\POSTS\Terisa Griffin - Revival Of Soul (2015)\12 - Talking About Love.wav
Pre-gap length 0:00:01.27
Peak level 98.8 %
Extraction speed 4.4 X
Track quality 100.0 %
Test CRC 4F5AFA19
Copy CRC 4F5AFA19
Track not present in AccurateRip database
Copy OK
Track 13
Filename G:\POSTS\Terisa Griffin - Revival Of Soul (2015)\13 - Ain't No Need (Musician Song).wav
Pre-gap length 0:00:01.49
Peak level 98.8 %
Extraction speed 4.8 X
Track quality 100.0 %
Test CRC DD41551E
Copy CRC DD41551E
Track not present in AccurateRip database
Copy OK
Track 14
Filename G:\POSTS\Terisa Griffin - Revival Of Soul (2015)\14 - Revival of Soul (Reflection).wav
Pre-gap length 0:00:00.51
Peak level 85.7 %
Extraction speed 2.9 X
Track quality 99.8 %
Test CRC A2FC8DCE
Copy CRC A2FC8DCE
Track not present in AccurateRip database
Copy OK
Track 15
Filename G:\POSTS\Terisa Griffin - Revival Of Soul (2015)\15 - Revival of My Soul.wav
Pre-gap length 0:00:00.31
Peak level 100.0 %
Extraction speed 4.4 X
Track quality 99.9 %
Test CRC 6AA299E0
Copy CRC 6AA299E0
Track not present in AccurateRip database
Copy OK
None of the tracks are present in the AccurateRip database
No errors occurred
End of status report
==== Log checksum 541701E3F95FD86E434C3BE5A3C6D7C5CE6A7696C9AB75CDF9A5F484DECAA88B ====
 
Содержание индексной карты (.CUE)
REM GENRE R&B
REM DATE 2015
REM DISCID DC0EE80F
REM COMMENT "ExactAudioCopy v1.0b3"
PERFORMER "Terisa Griffin"
TITLE "Revival of Soul"
FILE "01 Save Me (A Woman's Testimony).wav" WAVE
TRACK 01 AUDIO
TITLE "Save Me (A Woman's Testimony)"
PERFORMER "Terisa Griffin"
INDEX 01 00:00:00
TRACK 02 AUDIO
TITLE "Intro Revival Interlude"
PERFORMER "Terisa Griffin"
INDEX 00 06:17:32
FILE "02 Intro Revival Interlude.wav" WAVE
INDEX 01 00:00:00
FILE "03 Tonight Is the Night.wav" WAVE
TRACK 03 AUDIO
TITLE "Tonight Is the Night"
PERFORMER "Terisa Griffin"
INDEX 01 00:00:00
TRACK 04 AUDIO
TITLE "Cotton Candy Kisses (Oral Pleasure)"
PERFORMER "Terisa Griffin"
INDEX 00 05:04:46
FILE "04 Cotton Candy Kisses (Oral Pleasure).wav" WAVE
INDEX 01 00:00:00
TRACK 05 AUDIO
TITLE "Oh Me Oh My (I'm a Fool for You)"
PERFORMER "Terisa Griffin"
INDEX 00 04:54:02
FILE "05 Oh Me Oh My (I'm a Fool for You).wav" WAVE
INDEX 01 00:00:00
TRACK 06 AUDIO
TITLE "Revival Interlude (Love Look"
PERFORMER "Terisa Griffin"
INDEX 00 04:51:23
FILE "06 Revival Interlude (Love Look.wav" WAVE
INDEX 01 00:00:00
FILE "07 Naked.wav" WAVE
TRACK 07 AUDIO
TITLE "Naked"
PERFORMER "Terisa Griffin"
INDEX 01 00:00:00
TRACK 08 AUDIO
TITLE "Distant Lover"
PERFORMER "Terisa Griffin"
INDEX 00 04:46:73
FILE "08 Distant Lover.wav" WAVE
INDEX 01 00:00:00
TRACK 09 AUDIO
TITLE "Purple Like the Moon"
PERFORMER "Terisa Griffin"
INDEX 00 05:26:31
FILE "09 Purple Like the Moon.wav" WAVE
INDEX 01 00:00:00
TRACK 10 AUDIO
TITLE "Revival Interlude (Ain't Love Grand)"
PERFORMER "Terisa Griffin"
INDEX 00 05:34:02
FILE "10 Revival Interlude (Ain't Love Grand).wav" WAVE
INDEX 01 00:00:00
FILE "11 Swimming Higher.wav" WAVE
TRACK 11 AUDIO
TITLE "Swimming Higher"
PERFORMER "Terisa Griffin"
INDEX 01 00:00:00
TRACK 12 AUDIO
TITLE "Talking About Love"
PERFORMER "Terisa Griffin"
INDEX 00 04:48:65
FILE "12 Talking About Love.wav" WAVE
INDEX 01 00:00:00
TRACK 13 AUDIO
TITLE "Ain't No Need (Musician Song)"
PERFORMER "Terisa Griffin"
INDEX 00 05:11:16
FILE "13 Ain't No Need (Musician Song).wav" WAVE
INDEX 01 00:00:00
TRACK 14 AUDIO
TITLE "Revival of Soul (Reflection)"
PERFORMER "Terisa Griffin"
INDEX 00 05:32:63
FILE "14 Revival of Soul (Reflection).wav" WAVE
INDEX 01 00:00:00
TRACK 15 AUDIO
TITLE "Revival of My Soul"
PERFORMER "Terisa Griffin"
INDEX 00 01:25:41
FILE "15 Revival of My Soul.wav" WAVE
INDEX 01 00:00:00
Приватный:
Нет (DHT включён)
Размер:
469.63 Мб (492,438,260 байт) » файлов: 26
Участники:
0 раздают, 0 качают (0 участников всего)
Внешние участники:
3 раздают, 1 качают (4 участников всего) [ Обновить ]
Есть вопросы - пишите личное сообщение пользователю M0p94ok.
09:59
56
Нет комментариев. Ваш будет первым!