Поиск

1956-1962 James Brown - Singles Collection (2014) [4CD]

Треклист:
Жанр: Soul, Funk, R&B
Носитель: CD
Страна-производитель диска (релиза): UK
Год издания: 2014
Издатель (лейбл): Real Gone Music
Номер по каталогу: RGMCD164
Страна исполнителя (группы): USA
Аудиокодек: FLAC (*.flac)
Тип рипа: image+.cue
Битрейт аудио: lossless
Продолжительность: 03:07:04
Источник (релизер): London
Наличие сканов в содержимом раздачи: Front, Back, CD
 
CD 1 00:50:27
01. Please Please Please 2:43
02. Why Do You Do Me 2:59
03. I Don't Know 2:45
04. I Feel That Old Feeling Coming On 2:31
05. No, No, No, No 2:11
06. Hold My Baby's Hand 2:11
07. Just Won't Do Right 2:33
08. Let's Make It 2:24
09. I Won't Plead No More 2:25
10. Chonnie-On-Chon 2:09
11. Gonna Try 2:44
12. Can't Be The Same 2:18
13. Love Or A Game 2:14
14. Messing With The Blues 2:09
15. You're Mine, You're Mine 2:30
16. I Walked Alone 2:40
17. Baby Cries Over The Ocean 2:34
18. That Dood It 2:25
19. Begging, Begging 2:50
20. That'sWhen I Lost My Heart 2:48
 
 
Лог создания рипа
Exact Audio Copy V1.1 from 23. June 2015
EAC extraction logfile from 14. February 2016, 12:58
James Brown / Singles Collection 1956-1962 (Disc One)
Used drive  : ATAPI   iHAS122   C   Adapter: 1  ID: 0
Read mode               : Secure
Utilize accurate stream : Yes
Defeat audio cache      : Yes
Make use of C2 pointers : No
Read offset correction                      : 6
Overread into Lead-In and Lead-Out          : No
Fill up missing offset samples with silence : Yes
Delete leading and trailing silent blocks   : No
Null samples used in CRC calculations       : Yes
Used interface                              : Native Win32 interface for Win NT & 2000
Used output format : Internal WAV Routines
Sample format      : 44.100 Hz; 16 Bit; Stereo
TOC of the extracted CD
     Track |   Start  |  Length  | Start sector | End sector
    ---------------------------------------------------------
        1  |  0:00.00 |  2:44.12 |         0    |    12311
        2  |  2:44.12 |  3:00.15 |     12312    |    25826
        3  |  5:44.27 |  2:46.36 |     25827    |    38312
        4  |  8:30.63 |  2:32.41 |     38313    |    49753
        5  | 11:03.29 |  2:12.44 |     49754    |    59697
        6  | 13:15.73 |  2:11.71 |     59698    |    69593
        7  | 15:27.69 |  2:34.07 |     69594    |    81150
        8  | 18:02.01 |  2:25.06 |     81151    |    92031
        9  | 20:27.07 |  2:26.59 |     92032    |   103040
       10  | 22:53.66 |  2:10.44 |    103041    |   112834
       11  | 25:04.35 |  2:44.65 |    112835    |   125199
       12  | 27:49.25 |  2:19.48 |    125200    |   135672
       13  | 30:08.73 |  2:14.66 |    135673    |   145788
       14  | 32:23.64 |  2:09.45 |    145789    |   155508
       15  | 34:33.34 |  2:31.38 |    155509    |   166871
       16  | 37:04.72 |  2:41.36 |    166872    |   178982
       17  | 39:46.33 |  2:35.10 |    178983    |   190617
       18  | 42:21.43 |  2:26.21 |    190618    |   201588
       19  | 44:47.64 |  2:51.24 |    201589    |   214437
       20  | 47:39.13 |  2:47.67 |    214438    |   227029
Range status and errors
Selected range
     Filename C:\Users\Arturs\Desktop\James Brown - Singles Collection 1956-1962 (Disc One).wav
     Peak level 99.9 %
     Extraction speed 8.6 X
     Range quality 100.0 %
     Test CRC 7BE3F067
     Copy CRC 7BE3F067
     Copy OK
No errors occurred
AccurateRip summary
Track  1  accurately ripped (confidence 1)  [EA521E51]  (AR v2)
Track  2  accurately ripped (confidence 1)  [B971E33D]  (AR v2)
Track  3  accurately ripped (confidence 1)  [57B0DC23]  (AR v2)
Track  4  accurately ripped (confidence 1)  [C5F5F391]  (AR v2)
Track  5  accurately ripped (confidence 1)  [37428A48]  (AR v2)
Track  6  accurately ripped (confidence 1)  [5C717117]  (AR v2)
Track  7  accurately ripped (confidence 1)  [8498F681]  (AR v2)
Track  8  accurately ripped (confidence 1)  [A9C44F3A]  (AR v2)
Track  9  accurately ripped (confidence 1)  [46CC32E1]  (AR v2)
Track 10  accurately ripped (confidence 1)  [DBE0731E]  (AR v2)
Track 11  accurately ripped (confidence 1)  [4B1C11EC]  (AR v2)
Track 12  accurately ripped (confidence 1)  [EA8F980A]  (AR v2)
Track 13  accurately ripped (confidence 1)  [83EEC2A2]  (AR v2)
Track 14  accurately ripped (confidence 1)  [86AB632D]  (AR v2)
Track 15  accurately ripped (confidence 1)  [BD0C9663]  (AR v2)
Track 16  accurately ripped (confidence 1)  [6471B1E5]  (AR v2)
Track 17  accurately ripped (confidence 1)  [70227BC3]  (AR v2)
Track 18  accurately ripped (confidence 1)  [7B739016]  (AR v2)
Track 19  accurately ripped (confidence 1)  [C0AE88F2]  (AR v2)
Track 20  accurately ripped (confidence 1)  [6C1C5B03]  (AR v2)
All tracks accurately ripped
End of status report
---- CUETools DB Plugin V2.1.6
[CTDB TOCID: YKyhzP24MKzCNFWUZXZNMudtzOU-] found
Submit result: YKyhzP24MKzCNFWUZXZNMudtzOU- has been confirmed
Track | CTDB Status
  1   | (3/3) Accurately ripped
  2   | (3/3) Accurately ripped
  3   | (3/3) Accurately ripped
  4   | (3/3) Accurately ripped
  5   | (3/3) Accurately ripped
  6   | (3/3) Accurately ripped
  7   | (3/3) Accurately ripped
  8   | (3/3) Accurately ripped
  9   | (3/3) Accurately ripped
 10   | (3/3) Accurately ripped
 11   | (3/3) Accurately ripped
 12   | (3/3) Accurately ripped
 13   | (3/3) Accurately ripped
 14   | (3/3) Accurately ripped
 15   | (3/3) Accurately ripped
 16   | (3/3) Accurately ripped
 17   | (3/3) Accurately ripped
 18   | (3/3) Accurately ripped
 19   | (3/3) Accurately ripped
 20   | (3/3) Accurately ripped
==== Log checksum 8187447ED27332F92C3876FB447293743E1B74CC9DA9E68BDAD93892A3D74DAB ====
 
Содержание индексной карты (.CUE)
REM DATE 2014
REM DISCID 2B0BD314
REM COMMENT "ExactAudioCopy v1.1"
PERFORMER "James Brown"
TITLE "Singles Collection 1956-1962 (Disc One)"
FILE "James Brown - Singles Collection 1956-1962 (Disc One).flac" WAVE
  TRACK 01 AUDIO
    TITLE "Please Please Please"
    PERFORMER "James Brown"
    INDEX 01 00:00:00
  TRACK 02 AUDIO
    TITLE "Why Do You Do Me"
    PERFORMER "James Brown"
    INDEX 01 02:44:12
  TRACK 03 AUDIO
    TITLE "I Don't Know"
    PERFORMER "James Brown"
    INDEX 01 05:44:27
  TRACK 04 AUDIO
    TITLE "I Feel That Old Feeling Coming on"
    PERFORMER "James Brown"
    INDEX 01 08:30:63
  TRACK 05 AUDIO
    TITLE "No, No, No, No"
    PERFORMER "James Brown"
    INDEX 01 11:03:29
  TRACK 06 AUDIO
    TITLE "Hold My Baby's Hand"
    PERFORMER "James Brown"
    INDEX 01 13:15:73
  TRACK 07 AUDIO
    TITLE "Just Won't Do Right"
    PERFORMER "James Brown"
    INDEX 01 15:27:69
  TRACK 08 AUDIO
    TITLE "Let's Make It"
    PERFORMER "James Brown"
    INDEX 01 18:02:01
  TRACK 09 AUDIO
    TITLE "I Won't Plead No More"
    PERFORMER "James Brown"
    INDEX 01 20:27:07
  TRACK 10 AUDIO
    TITLE "Chonnie-on-chon"
    PERFORMER "James Brown"
    INDEX 01 22:53:66
  TRACK 11 AUDIO
    TITLE "Gonna Try"
    PERFORMER "James Brown"
    INDEX 01 25:04:35
  TRACK 12 AUDIO
    TITLE "Can't Be The Same"
    PERFORMER "James Brown"
    INDEX 01 27:49:25
  TRACK 13 AUDIO
    TITLE "Love Or A Game"
    PERFORMER "James Brown"
    INDEX 01 30:08:73
  TRACK 14 AUDIO
    TITLE "Messing With The Blues"
    PERFORMER "James Brown"
    INDEX 01 32:23:64
  TRACK 15 AUDIO
    TITLE "You're Mine, You're Mine"
    PERFORMER "James Brown"
    INDEX 01 34:33:34
  TRACK 16 AUDIO
    TITLE "I Walked Alone"
    PERFORMER "James Brown"
    INDEX 01 37:04:72
  TRACK 17 AUDIO
    TITLE "Baby Cries Over The Ocean"
    PERFORMER "James Brown"
    INDEX 01 39:46:33
  TRACK 18 AUDIO
    TITLE "That Dood It"
    PERFORMER "James Brown"
    INDEX 01 42:21:43
  TRACK 19 AUDIO
    TITLE "Begging, Begging"
    PERFORMER "James Brown"
    INDEX 01 44:47:64
  TRACK 20 AUDIO
    TITLE "That's when I Lost My Heart"
    PERFORMER "James Brown"
    INDEX 01 47:39:13
 
DR Log
foobar2000 1.1.10 / Dynamic Range Meter 1.1.1
log date: 2016-02-15 10:05:50
--------------------------------------------------------------------------------
Analyzed: James Brown / Singles Collection 1956-1962 (Disc One)
--------------------------------------------------------------------------------
DR         Peak         RMS     Duration Track
--------------------------------------------------------------------------------
DR8       -0.01 dB    -9.74 dB      2:44 ?-Please Please Please
DR8        0.00 dB    -9.38 dB      3:00 ?-Why Do You Do Me
DR8        0.00 dB    -9.59 dB      2:46 ?-I Don't Know
DR8       -0.01 dB    -9.51 dB      2:33 ?-I Feel That Old Feeling Coming on
DR8       -0.01 dB    -9.59 dB      2:13 ?-No, No, No, No
DR8        0.00 dB    -9.83 dB      2:12 ?-Hold My Baby's Hand
DR7        0.00 dB    -9.54 dB      2:34 ?-Just Won't Do Right
DR7       -0.02 dB    -9.36 dB      2:25 ?-Let's Make It
DR7       -0.01 dB    -9.80 dB      2:27 ?-I Won't Plead No More
DR8       -0.01 dB    -9.56 dB      2:11 ?-Chonnie-on-chon
DR8        0.00 dB    -9.61 dB      2:45 ?-Gonna Try
DR8        0.00 dB    -9.45 dB      2:20 ?-Can't Be The Same
DR8        0.00 dB   -10.40 dB      2:15 ?-Love Or A Game
DR8        0.00 dB    -9.99 dB      2:10 ?-Messing With The Blues
DR8        0.00 dB    -9.74 dB      2:32 ?-You're Mine, You're Mine
DR8        0.00 dB    -9.61 dB      2:41 ?-I Walked Alone
DR9       -0.01 dB    -9.55 dB      2:35 ?-Baby Cries Over The Ocean
DR8        0.00 dB   -10.02 dB      2:26 ?-That Dood It
DR8        0.00 dB   -10.04 dB      2:51 ?-Begging, Begging
DR8        0.00 dB    -9.70 dB      2:48 ?-That's when I Lost My Heart
--------------------------------------------------------------------------------
Number of tracks:  20
Official DR value: DR8
Samplerate:        44100 Hz
Channels:          2
Bits per sample:   16
Bitrate:           734 kbps
Codec:             FLAC
================================================================================
 
CD 2 00:54:38
01. Try Me 2:29
02. Tell Me What I Did Wrong 2:20
03. I Want You So Bad 2:45
04. There Must Be A Reason 2:25
05. I've Got to Change 2:25
06. It Hurts to Tell You 2:51
07. Good Good Lovin' 2:14
08. Don't Let It Happen to Me 2:49
09. It Was You 2:42
10. I've Got To Cry 2:44
11. I'll Go Crazy 2:07
12. I Know It's True 2:41
13. Think 2:48
14. You've Got The Power 2:21
15. This Old Heart 2:09
16. Wonder When You're Coming Home 2:32
17. The Bells 2:55
18. And I Do Just What I Want 2:03
19. Hold It 2:08
20. The Scratch 1:44
21. Bewildered 2:23
22. If You Want Me 2:23
 
Лог создания рипа
Exact Audio Copy V1.1 from 23. June 2015
EAC extraction logfile from 14. February 2016, 13:48
James Brown / Singles Collection 1956-1962 (Disc Two)
Used drive  : ATAPI   iHAS122   C   Adapter: 1  ID: 0
Read mode               : Secure
Utilize accurate stream : Yes
Defeat audio cache      : Yes
Make use of C2 pointers : No
Read offset correction                      : 6
Overread into Lead-In and Lead-Out          : No
Fill up missing offset samples with silence : Yes
Delete leading and trailing silent blocks   : No
Null samples used in CRC calculations       : Yes
Used interface                              : Native Win32 interface for Win NT & 2000
Used output format : Internal WAV Routines
Sample format      : 44.100 Hz; 16 Bit; Stereo
TOC of the extracted CD
     Track |   Start  |  Length  | Start sector | End sector
    ---------------------------------------------------------
        1  |  0:00.00 |  2:30.31 |         0    |    11280
        2  |  2:30.31 |  2:21.04 |     11281    |    21859
        3  |  4:51.35 |  2:46.45 |     21860    |    34354
        4  |  7:38.05 |  2:26.23 |     34355    |    45327
        5  | 10:04.28 |  2:26.17 |     45328    |    56294
        6  | 12:30.45 |  2:52.42 |     56295    |    69236
        7  | 15:23.12 |  2:15.36 |     69237    |    79397
        8  | 17:38.48 |  2:50.08 |     79398    |    92155
        9  | 20:28.56 |  2:43.54 |     92156    |   104434
       10  | 23:12.35 |  2:35.37 |    104435    |   116096
       11  | 25:47.72 |  2:07.69 |    116097    |   125690
       12  | 27:55.66 |  2:42.26 |    125691    |   137866
       13  | 30:38.17 |  2:49.60 |    137867    |   150601
       14  | 33:28.02 |  2:22.13 |    150602    |   161264
       15  | 35:50.15 |  2:10.56 |    161265    |   171070
       16  | 38:00.71 |  2:33.27 |    171071    |   182572
       17  | 40:34.23 |  2:56.56 |    182573    |   195828
       18  | 43:31.04 |  2:24.17 |    195829    |   206645
       19  | 45:55.21 |  2:09.37 |    206646    |   216357
       20  | 48:04.58 |  1:45.06 |    216358    |   224238
       21  | 49:49.64 |  2:24.60 |    224239    |   235098
       22  | 52:14.49 |  2:23.46 |    235099    |   245869
Range status and errors
Selected range
     Filename C:\Users\Arturs\Desktop\JAMES BROWN\James Brown - Singles Collection 1956-1962 (Disc Two).wav
     Suspicious position 0:23:12
     Peak level 99.9 %
     Extraction speed 5.7 X
     Range quality 99.9 %
     Test CRC EE157F92
     Copy CRC 8D4F9A09
     Copy finished
There were errors
AccurateRip summary
Track  1  accurately ripped (confidence 1)  [90D765E1]  (AR v2)
Track  2  accurately ripped (confidence 1)  [F396158A]  (AR v2)
Track  3  accurately ripped (confidence 1)  [4593EFD9]  (AR v2)
Track  4  accurately ripped (confidence 1)  [ACFED703]  (AR v2)
Track  5  accurately ripped (confidence 1)  [A31F892E]  (AR v2)
Track  6  accurately ripped (confidence 1)  [0959FCAF]  (AR v2)
Track  7  accurately ripped (confidence 1)  [7DBA84C4]  (AR v2)
Track  8  accurately ripped (confidence 1)  [C5536B35]  (AR v2)
Track  9  accurately ripped (confidence 1)  [15E474BA]  (AR v2)
Track 10  cannot be verified as accurate (confidence 1)  [AB6F174C], AccurateRip returned [611DA962]  (AR v2)
Track 11  accurately ripped (confidence 1)  [88442024]  (AR v2)
Track 12  accurately ripped (confidence 1)  [3F59E0A6]  (AR v2)
Track 13  accurately ripped (confidence 1)  [A2878CB8]  (AR v2)
Track 14  accurately ripped (confidence 1)  [CD5EE7EE]  (AR v2)
Track 15  accurately ripped (confidence 1)  [094D2592]  (AR v2)
Track 16  accurately ripped (confidence 1)  [C13896F8]  (AR v2)
Track 17  accurately ripped (confidence 1)  [29250256]  (AR v2)
Track 18  accurately ripped (confidence 1)  [BA63EFAA]  (AR v2)
Track 19  accurately ripped (confidence 1)  [6C46B142]  (AR v2)
Track 20  accurately ripped (confidence 1)  [9C923297]  (AR v2)
Track 21  accurately ripped (confidence 1)  [37E3A2DF]  (AR v2)
Track 22  accurately ripped (confidence 1)  [E7DA3102]  (AR v2)
21 track(s) accurately ripped
 1 track(s) could not be verified as accurate
Some tracks could not be verified as accurate
End of status report
---- CUETools DB Plugin V2.1.6
[CTDB TOCID: 3INL9atJy8CM0LuqjeTtCAP9arI-] found
Submit result: insufficient quality
Track | CTDB Status
  1   | (3/3) Accurately ripped
  2   | (3/3) Accurately ripped
  3   | (3/3) Accurately ripped
  4   | (3/3) Accurately ripped
  5   | (3/3) Accurately ripped
  6   | (3/3) Accurately ripped
  7   | (3/3) Accurately ripped
  8   | (3/3) Accurately ripped
  9   | (3/3) Accurately ripped
 10   | (3/3) Differs in 173 samples @00:00:24-00:00:25
 11   | (3/3) Accurately ripped
 12   | (3/3) Accurately ripped
 13   | (3/3) Accurately ripped
 14   | (3/3) Accurately ripped
 15   | (3/3) Accurately ripped
 16   | (3/3) Accurately ripped
 17   | (3/3) Accurately ripped
 18   | (3/3) Accurately ripped
 19   | (3/3) Accurately ripped
 20   | (3/3) Accurately ripped
 21   | (3/3) Accurately ripped
 22   | (3/3) Accurately ripped
If you are sure that your rip contains errors, you can use CUETools to repair it.
==== Log checksum 370C2F0D10ED03128831E53E49C216C5F8767D67C5694867EC46EBB0C4B01BF3 ====
 
Содержание индексной карты (.CUE)
REM DATE 2014
REM DISCID 250CCE16
REM COMMENT "ExactAudioCopy v1.1"
PERFORMER "James Brown"
TITLE "Singles Collection 1956-1962 (Disc Two)"
FILE "James Brown - Singles Collection 1956-1962 (Disc Two).flac" WAVE
  TRACK 01 AUDIO
    TITLE "TRY ME"
    PERFORMER "James Brown"
    INDEX 01 00:00:00
  TRACK 02 AUDIO
    TITLE "TELL ME WHAT I DID WRONG"
    PERFORMER "James Brown"
    INDEX 01 02:30:31
  TRACK 03 AUDIO
    TITLE "I WANT YOU SO BAD"
    PERFORMER "James Brown"
    INDEX 01 04:51:35
  TRACK 04 AUDIO
    TITLE "THERE MUST BE A REASON"
    PERFORMER "James Brown"
    INDEX 01 07:38:05
  TRACK 05 AUDIO
    TITLE "I’VE GOT TO CHANGE"
    PERFORMER "James Brown"
    INDEX 01 10:04:28
  TRACK 06 AUDIO
    TITLE "IT HURTS TO TELL YOU"
    PERFORMER "James Brown"
    INDEX 01 12:30:45
  TRACK 07 AUDIO
    TITLE "GOOD GOOD LOVIN’"
    PERFORMER "James Brown"
    INDEX 01 15:23:12
  TRACK 08 AUDIO
    TITLE "DON’T LET IT HAPPEN TO ME"
    PERFORMER "James Brown"
    INDEX 01 17:38:48
  TRACK 09 AUDIO
    TITLE "IT WAS YOU"
    PERFORMER "James Brown"
    INDEX 01 20:28:56
  TRACK 10 AUDIO
    TITLE "I’VE GOT TO CRY"
    PERFORMER "James Brown"
    INDEX 01 23:12:35
  TRACK 11 AUDIO
    TITLE "I’LL GO CRAZY"
    PERFORMER "James Brown"
    INDEX 01 25:47:72
  TRACK 12 AUDIO
    TITLE "I KNOW IT’S TRUE"
    PERFORMER "James Brown"
    INDEX 01 27:55:66
  TRACK 13 AUDIO
    TITLE "THINK"
    PERFORMER "James Brown"
    INDEX 01 30:38:17
  TRACK 14 AUDIO
    TITLE "YOU’VE GOT THE POWER"
    PERFORMER "James Brown"
    INDEX 01 33:28:02
  TRACK 15 AUDIO
    TITLE "THIS OLD HEART"
    PERFORMER "James Brown"
    INDEX 01 35:50:15
  TRACK 16 AUDIO
    TITLE "WONDER WHEN YOU’RE COMING HOME"
    PERFORMER "James Brown"
    INDEX 01 38:00:71
  TRACK 17 AUDIO
    TITLE "THE BELLS"
    PERFORMER "James Brown"
    INDEX 01 40:34:23
  TRACK 18 AUDIO
    TITLE "AND I DO JUST WHAT I WANT"
    PERFORMER "James Brown"
    INDEX 01 43:31:04
  TRACK 19 AUDIO
    TITLE "HOLD IT"
    PERFORMER "James Brown"
    INDEX 01 45:55:21
  TRACK 20 AUDIO
    TITLE "THE SCRATCH"
    PERFORMER "James Brown"
    INDEX 01 48:04:58
  TRACK 21 AUDIO
    TITLE "BEWILDERED"
    PERFORMER "James Brown"
    INDEX 01 49:49:64
  TRACK 22 AUDIO
    TITLE "IF YOU WANT ME"
    PERFORMER "James Brown"
    INDEX 01 52:14:49
 
DR Log
foobar2000 1.1.10 / Dynamic Range Meter 1.1.1
log date: 2016-02-15 10:11:29
--------------------------------------------------------------------------------
Analyzed: James Brown / Singles Collection 1956-1962 (Disc Two)
--------------------------------------------------------------------------------
DR         Peak         RMS     Duration Track
--------------------------------------------------------------------------------
DR8        0.00 dB    -9.68 dB      2:30 ?-TRY ME
DR8        0.00 dB    -9.32 dB      2:21 ?-TELL ME WHAT I DID WRONG
DR9        0.00 dB   -10.42 dB      2:47 ?-I WANT YOU SO BAD
DR8       -0.01 dB    -9.48 dB      2:26 ?-THERE MUST BE A REASON
DR8        0.00 dB    -9.63 dB      2:26 ?-I’VE GOT TO CHANGE
DR8        0.00 dB   -10.14 dB      2:53 ?-IT HURTS TO TELL YOU
DR8        0.00 dB    -9.77 dB      2:15 ?-GOOD GOOD LOVIN’
DR8       -0.02 dB    -9.86 dB      2:50 ?-DON’T LET IT HAPPEN TO ME
DR8        0.00 dB    -9.64 dB      2:44 ?-IT WAS YOU
DR8       -0.01 dB   -10.01 dB      2:35 ?-I’VE GOT TO CRY
DR8       -0.01 dB    -9.64 dB      2:08 ?-I’LL GO CRAZY
DR8       -0.01 dB    -9.79 dB      2:42 ?-I KNOW IT’S TRUE
DR9       -0.01 dB    -9.50 dB      2:50 ?-THINK
DR7       -0.01 dB    -9.56 dB      2:22 ?-YOU’VE GOT THE POWER
DR8        0.00 dB    -9.51 dB      2:11 ?-THIS OLD HEART
DR8       -0.01 dB    -9.46 dB      2:33 ?-WONDER WHEN YOU’RE COMING HOME
DR8       -0.01 dB    -9.26 dB      2:57 ?-THE BELLS
DR8        0.00 dB    -9.44 dB      2:24 ?-AND I DO JUST WHAT I WANT
DR9       -0.02 dB    -9.67 dB      2:09 ?-HOLD IT
DR9        0.00 dB    -9.69 dB      1:45 ?-THE SCRATCH
DR8       -0.01 dB    -9.43 dB      2:25 ?-BEWILDERED
DR8        0.00 dB    -9.53 dB      2:24 ?-IF YOU WANT ME
--------------------------------------------------------------------------------
Number of tracks:  22
Official DR value: DR8
Samplerate:        44100 Hz
Channels:          2
Bits per sample:   16
Bitrate:           601 kbps
Codec:             FLAC
================================================================================
 
CD 3 00:42:01
01. I Don't Mind 2:43
02. Love Don't Love Nobody 2:04
03. Suds 2:19
04. Sticky 2:43
05. Cross Firing 2:22
06. Night Flying 2:15
07. Baby, You're Right 3:05
08. I'll Never Never Let You Go 2:19
09. Just You And Me Darling 2:46
10. I Love You, Yes I Do 2:45
11. Lost Someone 3:04
12. I Found You (with Yvonne Fair) 2:26
13. If I Knew (with Yvonne Fair) 2:23
14. Night Train 3:30
15. Why Does Everything Happen To Me 2:09
16. Say So Long (with Yvonne Fair) 2:47
 
Лог создания рипа
Exact Audio Copy V1.1 from 23. June 2015
EAC extraction logfile from 14. February 2016, 14:06
James Brown / Singles Collection 1956-1962 (Disc Three)
Used drive  : ATAPI   iHAS122   C   Adapter: 1  ID: 0
Read mode               : Secure
Utilize accurate stream : Yes
Defeat audio cache      : Yes
Make use of C2 pointers : No
Read offset correction                      : 6
Overread into Lead-In and Lead-Out          : No
Fill up missing offset samples with silence : Yes
Delete leading and trailing silent blocks   : No
Null samples used in CRC calculations       : Yes
Used interface                              : Native Win32 interface for Win NT & 2000
Used output format : Internal WAV Routines
Sample format      : 44.100 Hz; 16 Bit; Stereo
TOC of the extracted CD
     Track |   Start  |  Length  | Start sector | End sector
    ---------------------------------------------------------
        1  |  0:00.00 |  2:44.57 |         0    |    12356
        2  |  2:44.57 |  2:05.44 |     12357    |    21775
        3  |  4:50.26 |  2:20.03 |     21776    |    32278
        4  |  7:10.29 |  2:44.00 |     32279    |    44578
        5  |  9:54.29 |  2:23.31 |     44579    |    55334
        6  | 12:17.60 |  2:16.12 |     55335    |    65546
        7  | 14:33.72 |  3:06.34 |     65547    |    79530
        8  | 17:40.31 |  2:20.06 |     79531    |    90036
        9  | 20:00.37 |  2:46.62 |     90037    |   102548
       10  | 22:47.24 |  2:46.45 |    102549    |   115043
       11  | 25:33.69 |  3:05.44 |    115044    |   128962
       12  | 28:39.38 |  2:27.37 |    128963    |   140024
       13  | 31:07.00 |  2:24.27 |    140025    |   150851
       14  | 33:31.27 |  3:31.36 |    150852    |   166712
       15  | 37:02.63 |  2:10.13 |    166713    |   176475
       16  | 39:13.01 |  2:47.53 |    176476    |   189053
Range status and errors
Selected range
     Filename C:\Users\Arturs\Desktop\JAMES BROWN\James Brown - Singles Collection 1956-1962 (Disc Three).wav
     Peak level 99.9 %
     Extraction speed 8.2 X
     Range quality 100.0 %
     Test CRC E14234AA
     Copy CRC E14234AA
     Copy OK
No errors occurred
AccurateRip summary
Track  1  accurately ripped (confidence 1)  [01EEFA8D]  (AR v2)
Track  2  accurately ripped (confidence 1)  [4659ADFD]  (AR v2)
Track  3  accurately ripped (confidence 1)  [8D24C8ED]  (AR v2)
Track  4  accurately ripped (confidence 1)  [B7398370]  (AR v2)
Track  5  accurately ripped (confidence 1)  [F11096E1]  (AR v2)
Track  6  accurately ripped (confidence 1)  [E4ECB6EA]  (AR v2)
Track  7  accurately ripped (confidence 1)  [7F99E057]  (AR v2)
Track  8  accurately ripped (confidence 1)  [E1F44E79]  (AR v2)
Track  9  accurately ripped (confidence 1)  [AB4B29FC]  (AR v2)
Track 10  accurately ripped (confidence 1)  [0DABC19B]  (AR v2)
Track 11  accurately ripped (confidence 1)  [A038408A]  (AR v2)
Track 12  accurately ripped (confidence 1)  [7474FE5A]  (AR v2)
Track 13  accurately ripped (confidence 1)  [1D74220B]  (AR v2)
Track 14  accurately ripped (confidence 1)  [89243589]  (AR v2)
Track 15  accurately ripped (confidence 1)  [88D1118D]  (AR v2)
Track 16  accurately ripped (confidence 1)  [76945C18]  (AR v2)
All tracks accurately ripped
End of status report
---- CUETools DB Plugin V2.1.6
[CTDB TOCID: k3jVSd06iHi1S1q0iNrnaebcZnw-] found
Submit result: k3jVSd06iHi1S1q0iNrnaebcZnw- has been confirmed
Track | CTDB Status
  1   | (3/3) Accurately ripped
  2   | (3/3) Accurately ripped
  3   | (3/3) Accurately ripped
  4   | (3/3) Accurately ripped
  5   | (3/3) Accurately ripped
  6   | (3/3) Accurately ripped
  7   | (3/3) Accurately ripped
  8   | (3/3) Accurately ripped
  9   | (3/3) Accurately ripped
 10   | (3/3) Accurately ripped
 11   | (3/3) Accurately ripped
 12   | (3/3) Accurately ripped
 13   | (3/3) Accurately ripped
 14   | (3/3) Accurately ripped
 15   | (3/3) Accurately ripped
 16   | (3/3) Accurately ripped
==== Log checksum 2D839EA323930D374687B2D8BDDA284BF282D49EC36E4E0BA33ABD26ADE58524 ====
 
Содержание индексной карты (.CUE)
REM DATE 2014
REM DISCID D109D810
REM COMMENT "ExactAudioCopy v1.1"
PERFORMER "James Brown"
TITLE "Singles Collection 1956-1962 (Disc Three)"
FILE "James Brown - Singles Collection 1956-1962 (Disc Three).flac" WAVE
  TRACK 01 AUDIO
    TITLE "I Don't Mind"
    PERFORMER "James Brown"
    INDEX 01 00:00:00
  TRACK 02 AUDIO
    TITLE "Love Don't Love Nobody"
    PERFORMER "James Brown"
    INDEX 01 02:44:57
  TRACK 03 AUDIO
    TITLE "Suds"
    PERFORMER "James Brown"
    INDEX 01 04:50:26
  TRACK 04 AUDIO
    TITLE "Sticky"
    PERFORMER "James Brown"
    INDEX 01 07:10:29
  TRACK 05 AUDIO
    TITLE "Cross Firing"
    PERFORMER "James Brown"
    INDEX 01 09:54:29
  TRACK 06 AUDIO
    TITLE "Night Flying"
    PERFORMER "James Brown"
    INDEX 01 12:17:60
  TRACK 07 AUDIO
    TITLE "Baby, You're Right"
    PERFORMER "James Brown"
    INDEX 01 14:33:72
  TRACK 08 AUDIO
    TITLE "I'll Never Never Let You Go"
    PERFORMER "James Brown"
    INDEX 01 17:40:31
  TRACK 09 AUDIO
    TITLE "Just You And Me Darling"
    PERFORMER "James Brown"
    INDEX 01 20:00:37
  TRACK 10 AUDIO
    TITLE "I Love You, Yes I Do"
    PERFORMER "James Brown"
    INDEX 01 22:47:24
  TRACK 11 AUDIO
    TITLE "Lost Someone"
    PERFORMER "James Brown"
    INDEX 01 25:33:69
  TRACK 12 AUDIO
    TITLE "I Found You (with Yvonne Fair)"
    PERFORMER "James Brown"
    INDEX 01 28:39:38
  TRACK 13 AUDIO
    TITLE "If I Knew (with Yvonne Fair)"
    PERFORMER "James Brown"
    INDEX 01 31:07:00
  TRACK 14 AUDIO
    TITLE "Night Train"
    PERFORMER "James Brown"
    INDEX 01 33:31:27
  TRACK 15 AUDIO
    TITLE "Why Does Everything Happen To Me"
    PERFORMER "James Brown"
    INDEX 01 37:02:63
  TRACK 16 AUDIO
    TITLE "Say So Long (with Yvonne Fair)"
    PERFORMER "James Brown"
    INDEX 01 39:13:01
 
DR Log
foobar2000 1.1.10 / Dynamic Range Meter 1.1.1
log date: 2016-02-15 10:12:17
--------------------------------------------------------------------------------
Analyzed: James Brown / Singles Collection 1956-1962 (Disc Three)
--------------------------------------------------------------------------------
DR         Peak         RMS     Duration Track
--------------------------------------------------------------------------------
DR7       -0.02 dB    -9.28 dB      2:45 ?-I Don't Mind
DR8       -0.14 dB    -9.29 dB      2:06 ?-Love Don't Love Nobody
DR9       -0.09 dB    -9.30 dB      2:20 ?-Suds
DR9       -0.01 dB    -9.39 dB      2:44 ?-Sticky
DR8       -0.02 dB    -9.29 dB      2:23 ?-Cross Firing
DR8       -0.02 dB    -9.32 dB      2:16 ?-Night Flying
DR8        0.00 dB    -9.43 dB      3:06 ?-Baby, You're Right
DR8        0.00 dB    -9.74 dB      2:20 ?-I'll Never Never Let You Go
DR8        0.00 dB    -9.36 dB      2:47 ?-Just You And Me Darling
DR8       -0.03 dB    -9.37 dB      2:47 ?-I Love You, Yes I Do
DR7       -0.02 dB    -9.25 dB      3:06 ?-Lost Someone
DR8        0.00 dB    -9.49 dB      2:27 ?-I Found You (with Yvonne Fair)
DR7        0.00 dB    -9.46 dB      2:24 ?-If I Knew (with Yvonne Fair)
DR8        0.00 dB    -9.51 dB      3:31 ?-Night Train
DR7       -0.01 dB    -9.29 dB      2:10 ?-Why Does Everything Happen To Me
DR8       -0.01 dB    -9.23 dB      2:48 ?-Say So Long (with Yvonne Fair)
--------------------------------------------------------------------------------
Number of tracks:  16
Official DR value: DR8
Samplerate:        44100 Hz
Channels:          2
Bits per sample:   16
Bitrate:           576 kbps
Codec:             FLAC
================================================================================
 
CD 4 00:39:58
01. Shout And Shimmy 2:50
02. Come Over Here 2:43
03. Mashed Potatoes U.S.A 2:51
04. You Don't Have To Go 2:47
05. It Hurts To Be In Love (with Yvonne Fair) 2:29
06. You Can Make It If You Try (with Yvonne Fair) 2:42
07. (Can You) Feel It Part 1 2:57
08. (Can You) Feel It Part 2 2:36
09. Three Hearts In A Tangle 2:53
10. I've Got Money 2:30
11. Dish Rag Part 1 (With Nat Kendrick & The Swans) 2:21
12. Dish Rag Part 2 (With Nat Kendrick & The Swans) 2:20
13. Mashed Potatoes Part 1 (With Nat Kendrick & The Swans) 1:45
14. Mashed Potatoes Part 2 (With Nat Kendrick & The Swans) 1:45
15. Wobble Wobble Part 1 (With Nat Kendrick & The Swans) 1:54
16. Wobble Wobble Part 2 (With Nat Kendrick & The Swans) 2:22
 
Лог создания рипа
Exact Audio Copy V1.1 from 23. June 2015
EAC extraction logfile from 14. February 2016, 14:18
James Brown / Singles Collection 1956-1962 (Disc Four)
Used drive  : ATAPI   iHAS122   C   Adapter: 1  ID: 0
Read mode               : Secure
Utilize accurate stream : Yes
Defeat audio cache      : Yes
Make use of C2 pointers : No
Read offset correction                      : 6
Overread into Lead-In and Lead-Out          : No
Fill up missing offset samples with silence : Yes
Delete leading and trailing silent blocks   : No
Null samples used in CRC calculations       : Yes
Used interface                              : Native Win32 interface for Win NT & 2000
Used output format : Internal WAV Routines
Sample format      : 44.100 Hz; 16 Bit; Stereo
TOC of the extracted CD
     Track |   Start  |  Length  | Start sector | End sector
    ---------------------------------------------------------
        1  |  0:00.00 |  2:51.06 |         0    |    12830
        2  |  2:51.06 |  2:44.14 |     12831    |    25144
        3  |  5:35.20 |  2:52.39 |     25145    |    38083
        4  |  8:27.59 |  2:48.02 |     38084    |    50685
        5  | 11:15.61 |  2:30.15 |     50686    |    61950
        6  | 13:46.01 |  2:42.05 |     61951    |    74105
        7  | 16:28.06 |  2:58.23 |     74106    |    87478
        8  | 19:26.29 |  2:36.23 |     87479    |    99201
        9  | 22:02.52 |  2:52.60 |     99202    |   112161
       10  | 24:55.37 |  2:31.19 |    112162    |   123505
       11  | 27:26.56 |  2:22.13 |    123506    |   134168
       12  | 29:48.69 |  2:20.61 |    134169    |   144729
       13  | 32:09.55 |  1:45.38 |    144730    |   152642
       14  | 33:55.18 |  1:46.13 |    152643    |   160605
       15  | 35:41.31 |  1:55.23 |    160606    |   169253
       16  | 37:36.54 |  2:21.25 |    169254    |   179853
Range status and errors
Selected range
     Filename C:\Users\Arturs\Desktop\JAMES BROWN\James Brown - Singles Collection 1956-1962 (Disc Four).wav
     Peak level 99.9 %
     Extraction speed 8.0 X
     Range quality 99.9 %
     Test CRC 6ED4B640
     Copy CRC 6ED4B640
     Copy OK
No errors occurred
AccurateRip summary
Track  1  accurately ripped (confidence 1)  [DF2403BF]  (AR v2)
Track  2  accurately ripped (confidence 1)  [B3505D75]  (AR v2)
Track  3  accurately ripped (confidence 1)  [8F6DC178]  (AR v2)
Track  4  accurately ripped (confidence 1)  [43B58E78]  (AR v2)
Track  5  accurately ripped (confidence 1)  [033642CD]  (AR v2)
Track  6  accurately ripped (confidence 1)  [7C5DC3CC]  (AR v2)
Track  7  accurately ripped (confidence 1)  [270110F2]  (AR v2)
Track  8  accurately ripped (confidence 1)  [3D33488E]  (AR v2)
Track  9  accurately ripped (confidence 1)  [D0679EB8]  (AR v2)
Track 10  accurately ripped (confidence 1)  [4245103C]  (AR v2)
Track 11  accurately ripped (confidence 1)  [6B2F5E65]  (AR v2)
Track 12  accurately ripped (confidence 1)  [7D65FD71]  (AR v2)
Track 13  accurately ripped (confidence 1)  [E14E69E8]  (AR v2)
Track 14  accurately ripped (confidence 1)  [695F0839]  (AR v2)
Track 15  accurately ripped (confidence 1)  [1D14187C]  (AR v2)
Track 16  accurately ripped (confidence 1)  [4749D11B]  (AR v2)
All tracks accurately ripped
End of status report
---- CUETools DB Plugin V2.1.6
[CTDB TOCID: WLB8f4SqFl.liNV.MnqCrkt_lhE-] found
Submit result: WLB8f4SqFl.liNV.MnqCrkt_lhE- has been confirmed
Track | CTDB Status
  1   | (3/3) Accurately ripped
  2   | (3/3) Accurately ripped
  3   | (3/3) Accurately ripped
  4   | (3/3) Accurately ripped
  5   | (3/3) Accurately ripped
  6   | (3/3) Accurately ripped
  7   | (3/3) Accurately ripped
  8   | (3/3) Accurately ripped
  9   | (3/3) Accurately ripped
 10   | (3/3) Accurately ripped
 11   | (3/3) Accurately ripped
 12   | (3/3) Accurately ripped
 13   | (3/3) Accurately ripped
 14   | (3/3) Accurately ripped
 15   | (3/3) Accurately ripped
 16   | (3/3) Accurately ripped
==== Log checksum 97432D868CAE878FFCB6F598630832F51FF5741AB107550614EC104B7507746B ====
 
Содержание индексной карты (.CUE)
REM DATE 2014
REM DISCID E8095E10
REM COMMENT "ExactAudioCopy v1.1"
PERFORMER "James Brown"
TITLE "Singles Collection 1956-1962 (Disc Four)"
FILE "James Brown - Singles Collection 1956-1962 (Disc Four).flac" WAVE
  TRACK 01 AUDIO
    TITLE "Shout And Shimmy"
    PERFORMER "James Brown"
    INDEX 01 00:00:00
  TRACK 02 AUDIO
    TITLE "Come Over Here"
    PERFORMER "James Brown"
    INDEX 01 02:51:06
  TRACK 03 AUDIO
    TITLE "Mashed Potatoes U.S.A"
    PERFORMER "James Brown"
    INDEX 01 05:35:20
  TRACK 04 AUDIO
    TITLE "You Don't Have To Go"
    PERFORMER "James Brown"
    INDEX 01 08:27:59
  TRACK 05 AUDIO
    TITLE "It Hurts To Be In Love (with Yvonne Fair)"
    PERFORMER "James Brown"
    INDEX 01 11:15:61
  TRACK 06 AUDIO
    TITLE "You Can Make It If You Try (with Yvonne Fair)"
    PERFORMER "James Brown"
    INDEX 01 13:46:01
  TRACK 07 AUDIO
    TITLE "(Can You) Feel It Part 1"
    PERFORMER "James Brown"
    INDEX 01 16:28:06
  TRACK 08 AUDIO
    TITLE "(Can You) Feel It Part 2"
    PERFORMER "James Brown"
    INDEX 01 19:26:29
  TRACK 09 AUDIO
    TITLE "Three Hearts In A Tangle"
    PERFORMER "James Brown"
    INDEX 01 22:02:52
  TRACK 10 AUDIO
    TITLE "I've Got Money"
    PERFORMER "James Brown"
    INDEX 01 24:55:37
  TRACK 11 AUDIO
    TITLE "Dish Rag Part 1 (With Nat Kendrick & The Swans)"
    PERFORMER "James Brown"
    INDEX 01 27:26:56
  TRACK 12 AUDIO
    TITLE "Dish Rag Part 2 (With Nat Kendrick & The Swans)"
    PERFORMER "James Brown"
    INDEX 01 29:48:69
  TRACK 13 AUDIO
    TITLE "Mashed Potatoes Part 1 (With Nat Kendrick & The Swans)"
    PERFORMER "James Brown"
    INDEX 01 32:09:55
  TRACK 14 AUDIO
    TITLE "Mashed Potatoes Part 2 (With Nat Kendrick & The Swans)"
    PERFORMER "James Brown"
    INDEX 01 33:55:18
  TRACK 15 AUDIO
    TITLE "Wobble Wobble Part 1 (With Nat Kendrick & The Swans)"
    PERFORMER "James Brown"
    INDEX 01 35:41:31
  TRACK 16 AUDIO
    TITLE "Wobble Wobble Part 2 (With Nat Kendrick & The Swans)"
    PERFORMER "James Brown"
    INDEX 01 37:36:54
 
DR Log
foobar2000 1.1.10 / Dynamic Range Meter 1.1.1
log date: 2016-02-15 10:13:06
--------------------------------------------------------------------------------
Analyzed: James Brown / Singles Collection 1956-1962 (Disc Four)
--------------------------------------------------------------------------------
DR         Peak         RMS     Duration Track
--------------------------------------------------------------------------------
DR7       -0.05 dB    -9.31 dB      2:51 ?-Shout And Shimmy
DR8       -0.02 dB    -9.21 dB      2:44 ?-Come Over Here
DR8       -0.18 dB    -9.24 dB      2:53 ?-Mashed Potatoes U.S.A
DR8       -0.18 dB    -9.21 dB      2:48 ?-You Don't Have To Go
DR8        0.00 dB    -9.38 dB      2:30 ?-It Hurts To Be In Love (with Yvonne Fair)
DR7       -0.01 dB    -9.48 dB      2:42 ?-You Can Make It If You Try (with Yvonne Fair)
DR8       -0.02 dB    -9.51 dB      2:58 ?-(Can You) Feel It Part 1
DR8        0.00 dB    -9.39 dB      2:36 ?-(Can You) Feel It Part 2
DR8        0.00 dB    -9.28 dB      2:53 ?-Three Hearts In A Tangle
DR8        0.00 dB    -9.32 dB      2:31 ?-I've Got Money
DR8        0.00 dB    -9.37 dB      2:22 ?-Dish Rag Part 1 (With Nat Kendrick & The Swans)
DR8        0.00 dB    -9.49 dB      2:21 ?-Dish Rag Part 2 (With Nat Kendrick & The Swans)
DR9       -0.01 dB    -9.61 dB      1:46 ?-Mashed Potatoes Part 1 (With Nat Kendrick & The Swans)
DR9        0.00 dB    -9.58 dB      1:46 ?-Mashed Potatoes Part 2 (With Nat Kendrick & The Swans)
DR8       -0.01 dB    -9.37 dB      1:55 ?-Wobble Wobble Part 1 (With Nat Kendrick & The Swans)
DR8        0.00 dB    -9.35 dB      2:21 ?-Wobble Wobble Part 2 (With Nat Kendrick & The Swans)
--------------------------------------------------------------------------------
Number of tracks:  16
Official DR value: DR8
Samplerate:        44100 Hz
Channels:          2
Bits per sample:   16
Bitrate:           593 kbps
Codec:             FLAC
================================================================================
 
Об исполнителе (группе)
Свои юные годы он провел в колонии для малолетних преступников в родной Южной Каролине, а после почти что сорокалетней творческой карьеры, в течение которой он практически революционизировал всю черную американскую музыку, Браун, по иронии судьбы и благодаря своему крайне взрывному характеру, в 1989 году снова попал за решетку...
Браун - в промежутках между очередными хулиганскими выходками - научился играть на ударных и органе, пел с госпелз-группой, и в 1954 году организовал группу The Famous Flames. Базировалась она в Джорджии и выступала, в основном, на Юге США, исполняя некую смесь из госпелз и ритм-энд-блюз RHYTHM & (R&ATа. В 1959 году вышел первый сингл «Please Please Please», он сразу же вошел в ритм-энд-блюз RHYTHM & (R&ATовые чартсы, и только в США эта пластинка разошлась более чем миллионным тиражом (она же дала Джеймсу Брауну одно из его имен). Интенсивная концертная деятельность группы и взрывной сценический темперамент Брауна протолкнули песню «Try Me» в Top 50, и в 1959 году Браун подписал контракт с Беном Бартом из гастрольного агентства Universal Attractions, Барт оказался великолепным менеджером, и в 1960 году сингл Брауна «Think» вошел в американский Тор 40. Стиль Брауна стал еще более драматическим (иные называли его даже «истерическим»), что Браун отметил целой чередой хитов. В 1962 году был записан ныне легендарный «живой» альбом «Live At The Apollo» - первый альбом, вошедший в чартсы, а в 1964 году Браун превзошел сам себя, записав сингл «Out Of Sight», - эта вещь стала основой современного фанка. Сингл «Papa's Got A Brand New Bag» (1965 год) впервые вошел в американский Тор 10 и попал в британский Тор 30, «I Got You (t Feel Good)» - в Top 5 в США и Top 30 в Великобритании, «It's A Man's Man's Man's World» (1966 год) стал в ритм-энд-блюз RHYTHM & (R&ATовых чартсах США № 1. В 1967 году постоянного музыкального советчика и соавтора Брауна Нэта Джоунса заменил Альфред «Пиви» Эллис, и стиль Брауна стал еще более «прифанкованным». Первый плод этого сотрудничества «Cold Sweat» также стал № 1 в категории ритм-энд-блюз RHYTHM & (R&AT: танцы под эту музыку требовали куда больших физических усилий как от танцоров, так и от певца, и потому в белой аудитории этот сингл был встречен с некоторой прохладцей. «Licking Stick, Licking Stick» (1968 год) стал вершиной работы Брауна в стиле фанк, в этом же году певец заявил о себе как о выразителе социальных требований чернокожего населения Америки: он публично осудил беспорядки, последовавшие после убийства Мартина Лютера Кинга, выпустил сингл «America Is My Home» и сингл «Say It Loud, I'm Black And I'm Proud» - фраза «Скажи во весь голос: я черен и горд!» превратилась в лозунг борьбы против расовой дискриминации, а пластинка разошлась миллионным тиражом. В 1969 году Браун изобрел новый танец - «попкорн», а сингл «Mother Popcorn» вошел в Тор 20. Результатом «попкорномании» был альбом «James Brown Plays And Directs The Popcorn», но последний год этого десятилетия и начало следующего продемонстрировали, что Браун решил серьезно пересмотреть свои музыкальные устремления.
Он распустил The Famous Flames и собрал The JBs - в этот состав вошли знаменитый басист Уильяме «Бутси» Коллинз, его брат гитарист Фелпс, группой руководил тромбонист Фред Уэсли. Они выпустили «Get Up (I Feel Like Being A) Sex Machine» - теперь это уже классика танцевальной музыки. Музыка The JBs, более насыщенная и интересная, чем у The Famous Flames, пришлась по вкусу публике семидесятых, и «победный» список Брауна продолжался. В 1973 году Браун и Уэсли написали музыку к двум фильмам - «Black Caesar» и «Slaughter's Big Rip Off», a хит 1960 года «Think» только за три месяца вышел в двух разных версиях. Вообще, в середине семидесятых Браун в основном издавал перезаписи своих прежних вещей, за исключением «The Payback» (1974 год) и «Get Up Offa' That Thing» (1976 год).
В 1980 году Браун сыграл роль в знаменитом фильме «Братья Блюз», и окончательно покорил Великобританию своей работой с Африком Бамбаатой «Unity (The 3 Coming)» в 1983 году.
В течение 1985 года Браун вновь обратился к новациям, и его работа этого периода стала как бы началом стиля рэпRAP. Его записи чаще всех других используются рэпперами наших дней, и вообще Браун для них - неиссякаемый источник вдохновения. В 1986 году Браун по личной просьбе Сильвестра Сталлоне записал основную тему из фильма «Роки IV», а затем выпустил еще целый букет своих сборников. В 1989 году он попал в тюрьму по смешному обвинению - за попытку ограбить банк, а также за несколько учиненных в особо «яростном» состоянии поджогов. Что, впрочем, не помешало ему давать интервью для телевидения и даже записываться.
В течение 1990-х имя Брауна периодически всплывало в прессе в связи с неприятностями в личной жизни. Четырежды он задерживался по обвинению в нанесении побоев супруге и домашним, а в 2000 г. попал в суд за нападение с ножом на электрика. В следующем году Браун женился (в четвёртый раз) на молодой певице, однако его дети от прежних браков поспешили назвать этот союз недействительным, фактически обвинив отца в двоежёнстве. В 2005 г. власти Атланты установили памятник Джеймсу Брауну.
73-летний музыкант умер от пневмонии в Рождество 2006-го года. Прощание с ним проходило при большом стечении народа, включая таких звёзд, как Майкл Джексон, а следующая за тем церемония «Грэмми» была посвящена памяти великого музыканта. Между тем смерть Брауна обострила споры за наследство между его последней супругой и детьми от предыдущих браков. В связи с разногласиями относительно места захоронения тело Брауна не было предано земле вплоть до 10 марта. Захоронение состоялось негласно, в неустановленном месте и на временной основе. Предполагается, что Браун будет перезахоронен после того, как будут улажены споры между его родственниками.
Приватный:
Нет (DHT включён)
Размер:
883.63 Мб (926,552,315 байт) » файлов: 24
Участники:
0 раздают, 0 качают (0 участников всего)
Внешние участники:
5 раздают, 1 качают (6 участников всего) [ Обновить ]
No seeders - write a personal message to user M0p94ok. Нет сидеров - пишите личное сообщение пользователю M0p94ok.
10:01
85
Нет комментариев. Ваш будет первым!