Поиск

(Contemporary Jazz / World Fusion / Label Bleu) Andy Sheppard / Naná Vasconcelos / Steve Lodder - Inclassificable - 1995, FLAC (image+.cue), lossless

(Contemporary Jazz / World Fusion / Label Bleu) Andy Sheppard / Naná Vasconcelos / Steve Lodder - Inclassificable - 1995, FLAC (image+.cue), lossless
Треклист:
Andy Sheppard / Naná Vasconcelos / Steve Lodder - Inclassificable
Жанр: Contemporary Jazz / World Fusion / Label Bleu
Год выпуска диска: 1995
Производитель диска: France (Label Bleu LBLC 6583)
Аудио кодек: FLAC
Тип рипа: image+.cue
Битрейт аудио: lossless
Продолжительность: 57:08
Andy Sheppard tenor and soprano saxophones
Naná Vasconcelos percussion
Steve Lodder synthesizers
1. Where We Going?
2. Slow Boat
3. Hush hush
4. RCA
5. Ocean View
6. Is everything Alright Up There?
7. Too Close To The Flame
8. Ships In The Night
9. Sharp Practice
 
EAC Report
Exact Audio Copy V0.99 prebeta 4 from 23. January 2008
EAC extraction logfile from 14. September 2008, 1:07
Andy Sheppard / Nana Vasconcelos / Steve Lodder / Inclassificable
Used drive : TSSTcorpCD/DVDW SH-S182M Adapter: 2 ID: 1
Read mode : Secure
Utilize accurate stream : Yes
Defeat audio cache : Yes
Make use of C2 pointers : No
Read offset correction : 6
Overread into Lead-In and Lead-Out : No
Fill up missing offset samples with silence : Yes
Delete leading and trailing silent blocks : No
Null samples used in CRC calculations : Yes
Used interface : Installed external ASPI interface
Used output format : User Defined Encoder
Selected bitrate : 1024 kBit/s
Quality : High
Add ID3 tag : No
Command line compressor : C:\Program Files\Exact Audio Copy\FLAC\FLAC.EXE
Additional command line options : -6 -V -T "ARTIST=%a" -T "TITLE=%t" -T "ALBUM=%g" -T "DATE=%y" -T "TRACKNUMBER=%n" -T "GENRE=%m" -T "COMMENT=%e" %s -o %d
TOC of the extracted CD
Track | Start | Length | Start sector | End sector
---------------------------------------------------------
1 | 0:00.33 | 7:38.00 | 33 | 34382
2 | 7:38.33 | 6:17.65 | 34383 | 62722
3 | 13:56.23 | 6:51.42 | 62723 | 93589
4 | 20:47.65 | 5:39.28 | 93590 | 119042
5 | 26:27.18 | 4:51.62 | 119043 | 140929
6 | 31:19.05 | 7:17.38 | 140930 | 173742
7 | 38:36.43 | 6:00.20 | 173743 | 200762
8 | 44:36.63 | 6:21.55 | 200763 | 229392
9 | 50:58.43 | 6:09.65 | 229393 | 257132
Range status and errors
Selected range
Filename C:\z\Sheppard Vasconcelos Lodder - Inclassificable.wav
Peak level 99.4 %
Range quality 100.0 %
Copy CRC F60DE98C
Copy OK
No errors occurred
AccurateRip summary
Track 1 accurately ripped (confidence 1) [EF9D4508]
Track 2 accurately ripped (confidence 1) [F0BDB6E9]
Track 3 accurately ripped (confidence 1) [8253182C]
Track 4 accurately ripped (confidence 1) [5EA62708]
Track 5 accurately ripped (confidence 1) [DD466BE7]
Track 6 accurately ripped (confidence 1) [8D39CFC5]
Track 7 accurately ripped (confidence 1) [BA06463D]
Track 8 accurately ripped (confidence 1) [7AD0FB2E]
Track 9 accurately ripped (confidence 1) [E7F51BFA]
All tracks accurately ripped
End of status report
По всем вопросам пишите личное сообщение пользователю M0p94ok.
05:32
195
Нет комментариев. Ваш будет первым!