Поиск

(Afro-beat) Fela Ransome Kuti & The Africa 70 - Funkiest Grooves Vol.2 - 1993, FLAC (image+.cue), lossless

(Afro-beat) Fela Ransome Kuti & The Africa 70 - Funkiest Grooves Vol.2 - 1993, FLAC (image+.cue), lossless
Треклист:
Fela Ransome Kuti & The Africa 70 - Funkiest Grooves Vol.2
Жанр: Afrobeat
Год выпуска диска: 1993
Производитель диска: Japan
Аудио кодек: FLAC
Тип рипа: image+.cue
Битрейт аудио: lossless
Продолжительность: 1:13
Трэклист:
1. Up Side Down
2. Go Slow
3. Opposite People
4. Water No Get Enemy
5. Yellow Fever
Доп. информация: Японский сборник нескольких песен Фелы. Сканы и буклеты присутствуют. Все, кроме текстов песен на японском языке. Внимание: во freedb диск не определяется.
 
скрытый текст
Exact Audio Copy V0.99 prebeta 4 from 23. January 2008
EAC extraction logfile from 2. April 2009, 16:22
Fela Ransome Kuti & The Africa 70 / Funkiest Grooves Vol.2
Used drive : HL-DT-STDVD-RAM GSA-H40N Adapter: 0 ID: 0
Read mode : Secure
Utilize accurate stream : Yes
Defeat audio cache : Yes
Make use of C2 pointers : No
Read offset correction : 667
Overread into Lead-In and Lead-Out : No
Fill up missing offset samples with silence : Yes
Delete leading and trailing silent blocks : No
Null samples used in CRC calculations : Yes
Used interface : Native Win32 interface for Win NT & 2000
Used output format : User Defined Encoder
Selected bitrate : 768 kBit/s
Quality : High
Add ID3 tag : No
Command line compressor : C:\Program Files\Exact Audio Copy\FLAC\FLAC.EXE
Additional command line options : -6 -V -T "ARTIST=%a" -T "TITLE=%t" -T "ALBUM=%g" -T "DATE=%y" -T "TRACKNUMBER=%n" -T "GENRE=%m" -T "COMMENT=%e" %s -o %d
TOC of the extracted CD
Track | Start | Length | Start sector | End sector
---------------------------------------------------------
1 | 0:00.37 | 14:44.35 | 37 | 66371
2 | 14:44.72 | 17:29.00 | 66372 | 145046
3 | 32:13.72 | 14:15.28 | 145047 | 209199
4 | 46:29.25 | 11:01.25 | 209200 | 258799
5 | 57:30.50 | 15:22.72 | 258800 | 328021
Range status and errors
Selected range
Filename C:\Documents and Settings\Cabbage\My Documents\My Music\Fela Ransome Kuti & The Africa 70 - Funkiest Grooves Vol.2.wav
Peak level 100.0 %
Range quality 99.9 %
Test CRC 26859CBF
Copy CRC 26859CBF
Copy OK
No errors occurred
AccurateRip summary
Track 1 not present in database
Track 2 not present in database
Track 3 not present in database
Track 4 not present in database
Track 5 not present in database
None of the tracks are present in the AccurateRip database
End of status report
05:32
291
Нет комментариев. Ваш будет первым!