Вы используете незарегистрированную версию компонента "Вкладки"!

Поиск

(Contemporary Jazz, Splasc(H)) [CD] Anthony Braxton with Dave Douglas (and Mark Whitecage, Mario Pavone, Warren Smith) - Six Standards (Quintet) 1996 - 2004, FLAC (tracks+.cue), lossless

(Contemporary Jazz, Splasc(H)) [CD] Anthony Braxton with Dave Douglas (and Mark Whitecage, Mario Pavone, Warren Smith) - Six Standards (Quintet) 1996 - 2004, FLAC (tracks+.cue), lossless
Издатель (лейбл):
Треклист:
Anthony Braxton with Dave Douglas / Six Standards (Quintet) 1996
Жанр: Contemporary Jazz, Splasc(H)
Носитель: CD
Страна-производитель диска: Italy
Год издания: 2004
Издатель (лейбл): Splasc(H) Records
Номер по каталогу: CDH 863.2
Аудиокодек: FLAC (*.flac)
Тип рипа: tracks+.cue
Битрейт аудио: lossless
Продолжительность: 1:11:28
Источник (релизер): я
Наличие сканов в содержимом раздачи: да (Discogs)
Треклист:
1. Woody’n You (Dizzy Gillespie) 11:53
2. Blues and the Abstract Truth (Oliver Nelson) 16:26
3. Ruby My Dear (Thelonious Monk) 13:53
4. Like Sonny (John Coltrane) 6:54
5. Lazy Bird (John Coltrane) 11:17
6. Dee’s Dilemma (Mal Waldron) 11:06
Recorded in 1996 at the Knitting Factory, New York City.
Dave Douglas – Trumpet
Mark Whitecage – Alto and Soprano Saxophones
Mario Pavone – String Bass
Warren Smith – Percussion
Anthony Braxton – Piano
 
Лог создания рипа
Exact Audio Copy V1.0 beta 3 from 29. August 2011
EAC extraction logfile from 1. February 2014, 19:19
Anthony Braxton with Dave Douglas / Six Standards (Quintet) 1996
Used drive : SlimtypeeNAU508 5 Adapter: 1 ID: 0
Read mode : Secure
Utilize accurate stream : Yes
Defeat audio cache : Yes
Make use of C2 pointers : No
Read offset correction : 6
Overread into Lead-In and Lead-Out : No
Fill up missing offset samples with silence : Yes
Delete leading and trailing silent blocks : No
Null samples used in CRC calculations : Yes
Used interface : Native Win32 interface for Win NT & 2000
Gap handling : Appended to previous track
Used output format : User Defined Encoder
Selected bitrate : 768 kBit/s
Quality : High
Add ID3 tag : No
Command line compressor : C:\Program Files (x86)\Exact Audio Copy\Flac\flac.exe
Additional command line options : -8 -V -T "ARTIST=%artist%" -T "TITLE=%title%" -T "ALBUM=%albumtitle%" -T "DATE=%year%" -T "TRACKNUMBER=%tracknr%" -T "GENRE=%genre%" -T "PERFORMER=%albuminterpret%" -T "COMPOSER=%composer%" %haslyrics%--tag-from-file=LYRICS="%lyricsfile%"%haslyrics% -T "ALBUMARTIST=%albumartist%" -T "DISCNUMBER=%cdnumber%" -T "TOTALDISCS=%totalcds%" -T "TOTALTRACKS=%numtracks%" -T "COMMENT=%comment%" %source% -o %dest%
TOC of the extracted CD
Track | Start | Length | Start sector | End sector
---------------------------------------------------------
1 | 0:00.00 | 11:52.46 | 0 | 53445
2 | 11:52.46 | 16:25.72 | 53446 | 127392
3 | 28:18.43 | 13:52.71 | 127393 | 189863
4 | 42:11.39 | 6:54.32 | 189864 | 220945
5 | 49:05.71 | 11:16.39 | 220946 | 271684
6 | 60:22.35 | 11:05.63 | 271685 | 321622
Track 1
Filename C:\EAC rips\01 - Woody'n You.wav
Pre-gap length 0:00:02.00
Peak level 100.0 %
Extraction speed 1.3 X
Track quality 100.0 %
Test CRC C54DDCA1
Copy CRC C54DDCA1
Track not present in AccurateRip database
Copy OK
Track 2
Filename C:\EAC rips\02 - Blues and the Abstract Truth.wav
Peak level 100.0 %
Extraction speed 1.7 X
Track quality 100.0 %
Test CRC 40F97C82
Copy CRC 40F97C82
Track not present in AccurateRip database
Copy OK
Track 3
Filename C:\EAC rips\03 - Ruby My Dear.wav
Peak level 85.3 %
Extraction speed 2.0 X
Track quality 99.9 %
Test CRC 3C9DAA67
Copy CRC 3C9DAA67
Track not present in AccurateRip database
Copy OK
Track 4
Filename C:\EAC rips\04 - Like Sonny.wav
Peak level 100.0 %
Extraction speed 2.1 X
Track quality 100.0 %
Test CRC 94C4A890
Copy CRC 94C4A890
Track not present in AccurateRip database
Copy OK
Track 5
Filename C:\EAC rips\05 - Lazy Bird.wav
Peak level 100.0 %
Extraction speed 2.4 X
Track quality 100.0 %
Test CRC 740ABD3E
Copy CRC 740ABD3E
Track not present in AccurateRip database
Copy OK
Track 6
Filename C:\EAC rips\06 - Dee's Dilemma.wav
Peak level 100.0 %
Extraction speed 2.5 X
Track quality 100.0 %
Test CRC EF2E3EDE
Copy CRC EF2E3EDE
Track not present in AccurateRip database
Copy OK
None of the tracks are present in the AccurateRip database
No errors occurred
End of status report
---- CUETools DB Plugin V2.1.4
[CTDB TOCID: Hy7WOZqHnKMdp9x_TLFn25lYD7U-] found
Submit result: Hy7WOZqHnKMdp9x_TLFn25lYD7U- has been uploaded
Track | CTDB Status
1 | (1/1) Accurately ripped
2 | (1/1) Accurately ripped
3 | (1/1) Accurately ripped
4 | (1/1) Accurately ripped
5 | (1/1) Accurately ripped
6 | (1/1) Differs in 1989 samples @11:05:47-11:05:49
If you are sure that your rip contains errors, you can use CUETools to repair it.
==== Log checksum 36964C8A81D894EE239FD8B2B5C054769564E402B8EBDE046B0311C9EEE1C670 ====
 
Содержание индексной карты (.CUE)
REM GENRE Jazz
REM DATE 2004
REM DISCID 4810C006
REM COMMENT "ExactAudioCopy v1.0b3"
PERFORMER "Anthony Braxton with Dave Douglas"
TITLE "Six Standards (Quintet) 1996"
FILE "01 - Woody'n You.wav" WAVE
TRACK 01 AUDIO
TITLE "Woody'n You"
PERFORMER "Anthony Braxton with Dave Douglas"
INDEX 01 00:00:00
FILE "02 - Blues and the Abstract Truth.wav" WAVE
TRACK 02 AUDIO
TITLE "Blues and the Abstract Truth"
PERFORMER "Anthony Braxton with Dave Douglas"
INDEX 01 00:00:00
FILE "03 - Ruby My Dear.wav" WAVE
TRACK 03 AUDIO
TITLE "Ruby My Dear"
PERFORMER "Anthony Braxton with Dave Douglas"
INDEX 01 00:00:00
FILE "04 - Like Sonny.wav" WAVE
TRACK 04 AUDIO
TITLE "Like Sonny"
PERFORMER "Anthony Braxton with Dave Douglas"
INDEX 01 00:00:00
FILE "05 - Lazy Bird.wav" WAVE
TRACK 05 AUDIO
TITLE "Lazy Bird"
PERFORMER "Anthony Braxton with Dave Douglas"
INDEX 01 00:00:00
FILE "06 - Dee's Dilemma.wav" WAVE
TRACK 06 AUDIO
TITLE "Dee's Dilemma"
PERFORMER "Anthony Braxton with Dave Douglas"
INDEX 01 00:00:00
По всем вопросам пишите личное сообщение пользователю M0p94ok.
23:12
248
Нет комментариев. Ваш будет первым!