Вы используете незарегистрированную версию компонента "Вкладки"!

Поиск

(Avant-Garde Jazz, Free Improvisation, Tzadik) [CD] John Zorn & Thurston Moore - @ - 2013, FLAC (tracks+.cue), lossless

(Avant-Garde Jazz, Free Improvisation, Tzadik) [CD] John Zorn & Thurston Moore - @ - 2013, FLAC (tracks+.cue), lossless
Треклист:
John Zorn & Thurston Moore / @
Жанр: Avant-Garde Jazz, Free Improvisation, Tzadik
Носитель: CD
Страна-производитель диска: US
Год издания: 2013
Издатель (лейбл): Tzadik
Номер по каталогу: TZ 7643
Страна: US
Аудиокодек: FLAC (*.flac)
Тип рипа: tracks+.cue
Битрейт аудио: lossless
Продолжительность: 55:14
Источник (релизер): waffles.fm, astephena
Наличие сканов в содержимом раздачи:
Треклист:
1 6th Floor Walk Up, Waiting 12:25
2 Jazz Laundromat 4:58
3 Dawn Escape 9:39
4 Her Sheets 4:19
5 Soiled, Luscious 6:12
6 Strange Neighbor 9:45
7 For Derek And Evan 7:54
 
Лог создания рипа
X Lossless Decoder version 20131102 (145.0)
XLD extraction logfile from 2014-01-21 12:41:05 -0800
John Zorn/Thurston Moore / "@"
Used drive : OPTIARC DVD RW AD-5680H (revision 3AHB)
Media type : Pressed CD
Ripper mode : XLD Secure Ripper
Disable audio cache : OK for the drive with a cache less than 1375KiB
Make use of C2 pointers : NO
Read offset correction : 48
Max retry count : 20
Gap status : Analyzed, Appended (except HTOA)
TOC of the extracted CD
Track | Start | Length | Start sector | End sector
---------------------------------------------------------
1 | 00:00:00 | 12:25:27 | 0 | 55901
2 | 12:25:27 | 04:58:19 | 55902 | 78270
3 | 17:23:46 | 09:39:08 | 78271 | 121703
4 | 27:02:54 | 04:19:31 | 121704 | 141159
5 | 31:22:10 | 06:12:20 | 141160 | 169079
6 | 37:34:30 | 09:45:03 | 169080 | 212957
7 | 47:19:33 | 07:54:45 | 212958 | 248552
AccurateRip Summary (DiscID: 000fae2c-005c0dcc-5e0cf207)
Track 01 : OK (v2, confidence 4/4)
Track 02 : OK (v2, confidence 4/4)
Track 03 : OK (v2, confidence 4/4)
Track 04 : OK (v2, confidence 4/4)
Track 05 : OK (v2, confidence 4/4)
Track 06 : OK (v2, confidence 4/4)
Track 07 : OK (v2, confidence 4/4)
->All tracks accurately ripped.
All Tracks
Album gain : -7.85 dB
Peak : 0.958771
Statistics
Read error : 0
Jitter error (maybe fixed) : 0
Retry sector count : 0
Damaged sector count : 0
Track 01
Filename : /Users/alderon54/Desktop/untitled folder/01 John ZornпјЏThurston Moore - 6th Floor Walk-Up, Waiting.aiff
Pre-gap length : 00:02:00
Track gain : -7.79 dB
Peak : 0.958771
CRC32 hash (test run) : B02425F2
CRC32 hash : B02425F2
CRC32 hash (skip zero) : 0E543674
AccurateRip v1 signature : 47D6661F
AccurateRip v2 signature : 3CC60A3E
->Accurately ripped (v2, confidence 4/4)
Statistics
Read error : 0
Jitter error (maybe fixed) : 0
Retry sector count : 0
Damaged sector count : 0
Track 02
Filename : /Users/alderon54/Desktop/untitled folder/02 John ZornпјЏThurston Moore - Jazz Laundromat.aiff
Track gain : -8.38 dB
Peak : 0.928955
CRC32 hash (test run) : 424C7C76
CRC32 hash : 424C7C76
CRC32 hash (skip zero) : 7A25A53B
AccurateRip v1 signature : 4A8CA042
AccurateRip v2 signature : 330D52BC
->Accurately ripped (v2, confidence 4/4)
Statistics
Read error : 0
Jitter error (maybe fixed) : 0
Retry sector count : 0
Damaged sector count : 0
Track 03
Filename : /Users/alderon54/Desktop/untitled folder/03 John ZornпјЏThurston Moore - Dawn Escape.aiff
Track gain : -7.85 dB
Peak : 0.953217
CRC32 hash (test run) : 20FD2387
CRC32 hash : 20FD2387
CRC32 hash (skip zero) : 55F45F95
AccurateRip v1 signature : 82878240
AccurateRip v2 signature : 7EB02E77
->Accurately ripped (v2, confidence 4/4)
Statistics
Read error : 0
Jitter error (maybe fixed) : 0
Retry sector count : 0
Damaged sector count : 0
Track 04
Filename : /Users/alderon54/Desktop/untitled folder/04 John ZornпјЏThurston Moore - Her Sheets.aiff
Track gain : -5.19 dB
Peak : 0.889069
CRC32 hash (test run) : AE51E112
CRC32 hash : AE51E112
CRC32 hash (skip zero) : 40FCD27F
AccurateRip v1 signature : 7CD37D14
AccurateRip v2 signature : 7B0DA52B
->Accurately ripped (v2, confidence 4/4)
Statistics
Read error : 0
Jitter error (maybe fixed) : 0
Retry sector count : 0
Damaged sector count : 0
Track 05
Filename : /Users/alderon54/Desktop/untitled folder/05 John ZornпјЏThurston Moore - Soiled, Luscious.aiff
Track gain : -6.31 dB
Peak : 0.906403
CRC32 hash (test run) : 0E6F4E2E
CRC32 hash : 0E6F4E2E
CRC32 hash (skip zero) : 82981DEB
AccurateRip v1 signature : 4074A9B8
AccurateRip v2 signature : 6B09AE5C
->Accurately ripped (v2, confidence 4/4)
Statistics
Read error : 0
Jitter error (maybe fixed) : 0
Retry sector count : 0
Damaged sector count : 0
Track 06
Filename : /Users/alderon54/Desktop/untitled folder/06 John ZornпјЏThurston Moore - Strange Neighbor.aiff
Track gain : -8.54 dB
Peak : 0.944305
CRC32 hash (test run) : 6BBEEDEB
CRC32 hash : 6BBEEDEB
CRC32 hash (skip zero) : A3A0D06C
AccurateRip v1 signature : 10FCCFCE
AccurateRip v2 signature : 67664D26
->Accurately ripped (v2, confidence 4/4)
Statistics
Read error : 0
Jitter error (maybe fixed) : 0
Retry sector count : 0
Damaged sector count : 0
Track 07
Filename : /Users/alderon54/Desktop/untitled folder/07 John ZornпјЏThurston Moore - For Derek And Evan.aiff
Track gain : -7.83 dB
Peak : 0.942932
CRC32 hash (test run) : 4FCE67D2
CRC32 hash : 4FCE67D2
CRC32 hash (skip zero) : A5205818
AccurateRip v1 signature : 47E15D06
AccurateRip v2 signature : AC1FDFEA
->Accurately ripped (v2, confidence 4/4)
Statistics
Read error : 0
Jitter error (maybe fixed) : 0
Retry sector count : 0
Damaged sector count : 0
No errors occurred
End of status report
-----BEGIN XLD SIGNATURE-----
2WkFGYkiMhzMogZEm0IbvGNUieb_J_Kqf7qaB9Y_7lGlu_dn7.MQ0Xvdw4e_dApqYaW4ST9bICNdYbMJqw3rzE_.Ww6R99GQ_ksHGSS
-----END XLD SIGNATURE-----
 
Содержание индексной карты (.CUE)
TITLE ""@""
PERFORMER "John Zorn/Thurston Moore"
REM GENRE "Other"
REM DATE "2013"
REM DISCNUMBER 1
REM TOTALDISCS 1
REM DISCID 5E0CF207
REM REPLAYGAIN_ALBUM_GAIN -7.85 dB
REM REPLAYGAIN_ALBUM_PEAK 0.958771
FILE "01 John Zorn & Thurston Moore - 6th Floor Walk-Up, Waiting.wav" WAVE
TRACK 01 AUDIO
TITLE "6th Floor Walk-Up, Waiting"
SONGWRITER "John Zorn/Thurston Moore"
FLAGS DCP
REM REPLAYGAIN_TRACK_GAIN -7.79 dB
REM REPLAYGAIN_TRACK_PEAK 0.958771
INDEX 01 00:00:00
FILE "02 John Zorn & Thurston Moore - Jazz Laundromat.wav" WAVE
TRACK 02 AUDIO
TITLE "Jazz Laundromat"
SONGWRITER "John Zorn/Thurston Moore"
FLAGS DCP
REM REPLAYGAIN_TRACK_GAIN -8.38 dB
REM REPLAYGAIN_TRACK_PEAK 0.928955
INDEX 01 00:00:00
FILE "03 John Zorn & Thurston Moore - Dawn Escape.wav" WAVE
TRACK 03 AUDIO
TITLE "Dawn Escape"
SONGWRITER "John Zorn/Thurston Moore"
FLAGS DCP
REM REPLAYGAIN_TRACK_GAIN -7.85 dB
REM REPLAYGAIN_TRACK_PEAK 0.953217
INDEX 01 00:00:00
FILE "04 John Zorn & Thurston Moore - Her Sheets.wav" WAVE
TRACK 04 AUDIO
TITLE "Her Sheets"
SONGWRITER "John Zorn/Thurston Moore"
FLAGS DCP
REM REPLAYGAIN_TRACK_GAIN -5.19 dB
REM REPLAYGAIN_TRACK_PEAK 0.889069
INDEX 01 00:00:00
FILE "05 John Zorn & Thurston Moore - Soiled, Luscious.wav" WAVE
TRACK 05 AUDIO
TITLE "Soiled, Luscious"
SONGWRITER "John Zorn/Thurston Moore"
FLAGS DCP
REM REPLAYGAIN_TRACK_GAIN -6.31 dB
REM REPLAYGAIN_TRACK_PEAK 0.906403
INDEX 01 00:00:00
FILE "06 John Zorn & Thurston Moore - Strange Neighbor.wav" WAVE
TRACK 06 AUDIO
TITLE "Strange Neighbor"
SONGWRITER "John Zorn/Thurston Moore"
FLAGS DCP
REM REPLAYGAIN_TRACK_GAIN -8.54 dB
REM REPLAYGAIN_TRACK_PEAK 0.944305
INDEX 01 00:00:00
FILE "07 John Zorn & Thurston Moore - For Derek And Evan.wav" WAVE
TRACK 07 AUDIO
TITLE "For Derek And Evan"
SONGWRITER "John Zorn/Thurston Moore"
FLAGS DCP
REM REPLAYGAIN_TRACK_GAIN -7.83 dB
REM REPLAYGAIN_TRACK_PEAK 0.942932
INDEX 01 00:00:00
 
Лог проверки качества
d:\>d:\aucdtect -d/-m0 d:\zzz\*.wav
auCDtect: CD records authenticity detector, version 0.8.2
Copyright (c) 2004 Oleg Berngardt. All rights reserved.
Copyright (c) 2004 Alexander Djourik. All rights reserved.
------------------------------------------------------------
Processing file: [01. 6th Floor Walk-Up, Waiting.wav]
------------------------------------------------------------
This track looks like CDDA with probability 100%
------------------------------------------------------------
Processing file: [02. Jazz Laundromat.wav]
------------------------------------------------------------
This track looks like CDDA with probability 100%
------------------------------------------------------------
Processing file: [03. Dawn Escape.wav]
------------------------------------------------------------
This track looks like CDDA with probability 100%
------------------------------------------------------------
Processing file: [04. Her Sheets.wav]
------------------------------------------------------------
This track looks like CDDA with probability 100%
------------------------------------------------------------
Processing file: [05. Soiled, Luscious.wav]
------------------------------------------------------------
This track looks like CDDA with probability 99%
------------------------------------------------------------
Processing file: [06. Strange Neighbor.wav]
------------------------------------------------------------
This track looks like CDDA with probability 100%
------------------------------------------------------------
Processing file: [07. For Derek And Evan.wav]
------------------------------------------------------------
This track looks like CDDA with probability 99%
------------------------------------------------------------
Final Conclusion:
------------------------------------------------------------
These tracks looks like CDDA with probability 100%
Доп. информация:
 
AMG Review
Put to tape in a single live session one evening in February of 2013, @ finds two of New York City's longest-running fringe dwellers churning out sheets of collaborative sounds that conjoin their respective and distinct states of constant freak-out. Thurston Moore, known best for his decades of noisy pop with Sonic Youth, has always sought shelter in an array of far noisier side projects, and here he offers only electric guitar improvisations, clattering and chiming but not quite as all-out in the cacophonous noise directions as he can sometimes veer. John Zorn, playing only sax, actually tends to be the wilder of the two in their duets, blowing skronky and continuous runs midway between Albert Ayler's spiritual blasts of mayhem and the gritty downtown N.Y.C. sound he helped helm with his Tzadik label and its scene of improvisers. The connectivity of the duo is impressive, especially in moments of complete and unexpected synchronicity that come on more sprawling tracks like "Strange Neighbor" and the unfortunately titled but dutifully ripping feedback fest "Jazz Laundromat." The quieter moments of @ find less willful instrument destruction, but just as sideways of a look into structured improvisation. "Her Sheets" builds on droning, contemplative sax figures from Zorn as Moore scratches and picks at his guitar until a looming cushion of sound eventually forms, womb-like, around the both of them. These seven improvisations sound inspired without feeling at all heavy-handed or urgent. More so, @ succeeds with the type of conversational playing that could only be achieved by two masters so deep into their craft that it probably feels a lot like breathing to them by now.
 
Состав
Thurston Moore Collage, Composer, Guitar, Improvisation
John Zorn Composer, Executive Producer, Improvisation, Saxophone
По всем вопросам пишите личное сообщение пользователю M0p94ok.
23:12
186
Нет комментариев. Ваш будет первым!