Вы используете незарегистрированную версию компонента "Вкладки"!

Поиск

(Contemporary Jazz, Plainisphare) La Fanfare du Loup - Pic Nic Mambo - 1996, FLAC (tracks+.cue), lossless

(Contemporary Jazz, Plainisphare) La Fanfare du Loup - Pic Nic Mambo - 1996, FLAC (tracks+.cue), lossless
Треклист:
La Fanfare du Loup / Pic Nic Mambo
Жанр: Contemporary Jazz, Plainisphare
Страна-производитель диска: Switzerland
Год издания: 1996
Издатель (лейбл): Plainisphare
Номер по каталогу: PL 1267 - 101
Аудиокодек: FLAC (*.flac)
Тип рипа: tracks+.cue
Битрейт аудио: lossless
Продолжительность: 1:01:05
Источник (релизер): Max Monteiro
Наличие сканов в содержимом раздачи: нет
Треклист:
01. Les Éléphants* (B. Holden, S. Aeschimann, S. Rossetti, P. Ehinger, L. Bowie) (extraits) 6:08
02. Mambo Resto** (B. Holden, S. Aeschimann, S. Rossetti, P. Ehinger) 4:25
03. Jungle Rain Hard** (C. Graf, Y. Cerf, D. Gillespie) (extrait) 4:47
04. Le Cirque Amar*** (C. Graf) 3:55
05. Pic Nic Mambo* (Y. Cerf) 5:45
06. Betty Bossi Bop** (Bill Holden [paroles], Ristret Band) 5:00
07. Como en Bosnia** (C. Graf) 5:38
08. Les Belles Patronnes*** (I. Gordon-Lennox) 3:54
09. La Valse de Sierro*** (M. Sierro) 7:03
10. La Danse du congre*** (C. Graf, I. Gordon-Lennox) 5:48
11. Le Roi des fourbes* (Y. Cerf) 6:07
12. Le Calypso de Demierre** (J. Demierre) 2:35
Enregistré au théâtre du Loup les 14, 15 et 16 janvier 1996.
Christophe Berthet – sax soprano
François Chevrolet – sax alto
Marco Sierro – sax alto et baryton
Yves Cerf – sax ténor et soprano
William Bill Holden – trompette
Ian Gordon-Lennox – trompette, euphonium, tuba
Yves Massy – trombone
Christian Graf – guitare
Jacques Demierre – piano
Jean-Luc Riesen – guitare basse
Sandro Rosetti – contrebasse
Raul Esmerode – batterie
Bernard Trontin – batterie
Jean-Bruno Meier – percussions
 
Лог создания рипа
Exact Audio Copy V1.0 beta 3 from 29. August 2011
EAC extraction logfile from 22. September 2013, 14:22
La Fanfare du Loup / Pic Nic Mambo
Used drive : SlimtypeeNAU508 5 Adapter: 1 ID: 0
Read mode : Secure
Utilize accurate stream : Yes
Defeat audio cache : Yes
Make use of C2 pointers : No
Read offset correction : 6
Overread into Lead-In and Lead-Out : No
Fill up missing offset samples with silence : Yes
Delete leading and trailing silent blocks : No
Null samples used in CRC calculations : Yes
Used interface : Native Win32 interface for Win NT & 2000
Gap handling : Appended to previous track
Used output format : User Defined Encoder
Selected bitrate : 768 kBit/s
Quality : High
Add ID3 tag : No
Command line compressor : C:\Program Files (x86)\Exact Audio Copy\Flac\flac.exe
Additional command line options : -8 -V -T "ARTIST=%artist%" -T "TITLE=%title%" -T "ALBUM=%albumtitle%" -T "DATE=%year%" -T "TRACKNUMBER=%tracknr%" -T "GENRE=%genre%" -T "PERFORMER=%albuminterpret%" -T "COMPOSER=%composer%" %haslyrics%--tag-from-file=LYRICS="%lyricsfile%"%haslyrics% -T "ALBUMARTIST=%albumartist%" -T "DISCNUMBER=%cdnumber%" -T "TOTALDISCS=%totalcds%" -T "TOTALTRACKS=%numtracks%" -T "COMMENT=%comment%" %source% -o %dest%
TOC of the extracted CD
Track | Start | Length | Start sector | End sector
---------------------------------------------------------
1 | 0:00.00 | 6:08.00 | 0 | 27599
2 | 6:08.00 | 4:25.00 | 27600 | 47474
3 | 10:33.00 | 4:47.00 | 47475 | 68999
4 | 15:20.00 | 3:54.50 | 69000 | 86599
5 | 19:14.50 | 5:45.25 | 86600 | 112499
6 | 25:00.00 | 5:00.00 | 112500 | 134999
7 | 30:00.00 | 5:38.00 | 135000 | 160349
8 | 35:38.00 | 3:54.00 | 160350 | 177899
9 | 39:32.00 | 7:03.00 | 177900 | 209624
10 | 46:35.00 | 5:48.00 | 209625 | 235724
11 | 52:23.00 | 6:07.00 | 235725 | 263249
12 | 58:30.00 | 2:35.22 | 263250 | 274896
Track 1
Filename C:\EAC rips\01 - Les Éléphants.wav
Pre-gap length 0:00:02.00
Peak level 99.8 %
Extraction speed 1.1 X
Track quality 100.0 %
Test CRC 1473F69C
Copy CRC 1473F69C
Track not present in AccurateRip database
Copy OK
Track 2
Filename C:\EAC rips\02 - Mambo Resto.wav
Pre-gap length 0:00:02.20
Peak level 99.6 %
Extraction speed 1.2 X
Track quality 100.0 %
Test CRC 7F638EC4
Copy CRC 7F638EC4
Track not present in AccurateRip database
Copy OK
Track 3
Filename C:\EAC rips\03 - Jungle Rain Hard.wav
Pre-gap length 0:00:03.18
Peak level 99.5 %
Extraction speed 1.4 X
Track quality 100.0 %
Test CRC 45029E70
Copy CRC 45029E70
Track not present in AccurateRip database
Copy OK
Track 4
Filename C:\EAC rips\04 - Le Cirque Amar.wav
Pre-gap length 0:00:02.54
Peak level 99.6 %
Extraction speed 1.4 X
Track quality 100.0 %
Test CRC 7EE86C04
Copy CRC 7EE86C04
Track not present in AccurateRip database
Copy OK
Track 5
Filename C:\EAC rips\05 - Pic Nic Mambo.wav
Pre-gap length 0:00:02.71
Peak level 99.5 %
Extraction speed 1.6 X
Track quality 100.0 %
Test CRC D561F30A
Copy CRC D561F30A
Track not present in AccurateRip database
Copy OK
Track 6
Filename C:\EAC rips\06 - Betty Bossi Bop.wav
Pre-gap length 0:00:02.43
Peak level 99.9 %
Extraction speed 1.7 X
Track quality 100.0 %
Test CRC D2A3CBF4
Copy CRC D2A3CBF4
Track not present in AccurateRip database
Copy OK
Track 7
Filename C:\EAC rips\07 - Como en Bosnia.wav
Pre-gap length 0:00:02.74
Peak level 99.7 %
Extraction speed 1.7 X
Track quality 99.9 %
Test CRC D3B22213
Copy CRC D3B22213
Track not present in AccurateRip database
Copy OK
Track 8
Filename C:\EAC rips\08 - Les Belles Patronnes.wav
Pre-gap length 0:00:02.20
Peak level 99.5 %
Extraction speed 1.8 X
Track quality 100.0 %
Test CRC 489442F3
Copy CRC 489442F3
Track not present in AccurateRip database
Copy OK
Track 9
Filename C:\EAC rips\09 - La Valse de Sierro.wav
Pre-gap length 0:00:03.08
Peak level 99.7 %
Extraction speed 2.0 X
Track quality 100.0 %
Test CRC 168CEB59
Copy CRC 168CEB59
Track not present in AccurateRip database
Copy OK
Track 10
Filename C:\EAC rips\10 - La Danse du congre.wav
Pre-gap length 0:00:03.03
Peak level 99.6 %
Extraction speed 2.1 X
Track quality 100.0 %
Test CRC 6876071C
Copy CRC 6876071C
Track not present in AccurateRip database
Copy OK
Track 11
Filename C:\EAC rips\11 - Le Roi des fourbes.wav
Pre-gap length 0:00:02.60
Peak level 99.6 %
Extraction speed 2.2 X
Track quality 100.0 %
Test CRC FB206DA2
Copy CRC FB206DA2
Track not present in AccurateRip database
Copy OK
Track 12
Filename C:\EAC rips\12 - Le Calypso de Demierre.wav
Pre-gap length 0:00:02.68
Peak level 99.5 %
Extraction speed 2.0 X
Track quality 100.0 %
Test CRC 84D006CD
Copy CRC 84D006CD
Track not present in AccurateRip database
Copy OK
None of the tracks are present in the AccurateRip database
No errors occurred
End of status report
---- CUETools DB Plugin V2.1.4
[CTDB TOCID: BkjMAQnmUmalp6pjpOLloPbx3xI-] disk not present in database
Submit result: BkjMAQnmUmalp6pjpOLloPbx3xI- has been uploaded
==== Log checksum 515B8FD844C1DAECD990FDB4B71AB2ED4FBD5FD8164F6D9263F2834213390C41 ====
 
Содержание индексной карты (.CUE)
REM GENRE Jazz
REM DATE 1996
REM DISCID 8F0E510C
REM COMMENT "ExactAudioCopy v1.0b3"
PERFORMER "La Fanfare du Loup"
TITLE "Pic Nic Mambo"
FILE "01 - Les Éléphants.wav" WAVE
TRACK 01 AUDIO
TITLE "Les Éléphants"
PERFORMER "La Fanfare du Loup"
INDEX 01 00:00:00
TRACK 02 AUDIO
TITLE "Mambo Resto"
PERFORMER "La Fanfare du Loup"
INDEX 00 06:05:55
FILE "02 - Mambo Resto.wav" WAVE
INDEX 01 00:00:00
TRACK 03 AUDIO
TITLE "Jungle Rain Hard"
PERFORMER "La Fanfare du Loup"
INDEX 00 04:21:57
FILE "03 - Jungle Rain Hard.wav" WAVE
INDEX 01 00:00:00
TRACK 04 AUDIO
TITLE "Le Cirque Amar"
PERFORMER "La Fanfare du Loup"
INDEX 00 04:44:21
FILE "04 - Le Cirque Amar.wav" WAVE
INDEX 01 00:00:00
TRACK 05 AUDIO
TITLE "Pic Nic Mambo"
PERFORMER "La Fanfare du Loup"
INDEX 00 03:51:54
FILE "05 - Pic Nic Mambo.wav" WAVE
INDEX 01 00:00:00
TRACK 06 AUDIO
TITLE "Betty Bossi Bop"
PERFORMER "La Fanfare du Loup"
INDEX 00 05:42:57
FILE "06 - Betty Bossi Bop.wav" WAVE
INDEX 01 00:00:00
TRACK 07 AUDIO
TITLE "Como en Bosnia"
PERFORMER "La Fanfare du Loup"
INDEX 00 04:57:01
FILE "07 - Como en Bosnia.wav" WAVE
INDEX 01 00:00:00
TRACK 08 AUDIO
TITLE "Les Belles Patronnes"
PERFORMER "La Fanfare du Loup"
INDEX 00 05:35:55
FILE "08 - Les Belles Patronnes.wav" WAVE
INDEX 01 00:00:00
TRACK 09 AUDIO
TITLE "La Valse de Sierro"
PERFORMER "La Fanfare du Loup"
INDEX 00 03:50:67
FILE "09 - La Valse de Sierro.wav" WAVE
INDEX 01 00:00:00
TRACK 10 AUDIO
TITLE "La Danse du congre"
PERFORMER "La Fanfare du Loup"
INDEX 00 06:59:72
FILE "10 - La Danse du congre.wav" WAVE
INDEX 01 00:00:00
TRACK 11 AUDIO
TITLE "Le Roi des fourbes"
PERFORMER "La Fanfare du Loup"
INDEX 00 05:45:15
FILE "11 - Le Roi des fourbes.wav" WAVE
INDEX 01 00:00:00
TRACK 12 AUDIO
TITLE "Le Calypso de Demierre"
PERFORMER "La Fanfare du Loup"
INDEX 00 06:04:07
FILE "12 - Le Calypso de Demierre.wav" WAVE
INDEX 01 00:00:00
 
Состав
* La grande fanfare :

Christophe Berthet – sax soprano
François Chevrolet – sax alto
Marco Sierro – sax alto et baryton
Yves Cerf – sax ténor et soprano
William Bill Holden – trompette
Ian Gordon-Lennox – trompette, euphonium, tuba
Yves Massy – trombone
Christian Graf – guitare
Jacques Demierre – piano
Jean-Luc Riesen – guitare basse
Sandro Rosetti – contrebasse
Raul Esmerode – batterie
Bernard Trontin – batterie
Jean-Bruno Meier – percussions
** Ristret Band :
Marco Sierro – sax alto
Yves Cerf – sax ténor
Ian Gordon-Lennox – trompette, euphonium
Christian Graf – guitare
Sandro Rossetti – contrebasse
William Bill Holden – batterie, voix
Bernard Trontin – percussions, batterie
*** El Halia Orchestra :

Marco Sierro – sax alto
Yves Cerf – sax ténor, soprano
Ian Gordon-Lennox – trompette, euphonium
Christian Graf – guitare
Jean-Luc Riesen – guitare basse
Bernard Trontin – batterie
По всем вопросам пишите личное сообщение пользователю M0p94ok.
18:26
182
Нет комментариев. Ваш будет первым!