Вы используете незарегистрированную версию компонента "Вкладки"!

Поиск

(Avant-Garde, Bee Jazz Records) Manu Codjia Trio (Jerome Regard, Philippe Garcia) - Covers - 2010, FLAC (tracks+.cue), lossless

(Avant-Garde, Bee Jazz Records) Manu Codjia Trio (Jerome Regard, Philippe Garcia) - Covers - 2010, FLAC (tracks+.cue), lossless
Треклист:
Manu Codjia Trio / Covers
Жанр: Avant-Garde, Bee Jazz Records
Страна-производитель диска: France
Год издания: 2010
Издатель (лейбл): Bee Jazz Records
Номер по каталогу: BEE 032
Аудиокодек: FLAC (*.flac)
Тип рипа: tracks+.cue
Битрейт аудио: lossless
Продолжительность: 41:39
Источник (релизер): Max Monteiro
Наличие сканов в содержимом раздачи: нет
Треклист:
1. Beat It (Michael Jackson) 6:34
2. Redemption Song (Bob Marley) 6:34
3. Martha (Tom Waits) 4:08
4. Requiem pour un con / Je t’aime moi non plus (Serge Gainsbourg) 3:58
5. Halleluyah (Leonard Cohen) 4:12
6. Hunting High and Low (A-ha / Pal Waaktaar) 8:46
7. Children’s Play Song (Bill Evans) 3:29
8. Natural Mystic (Bob Marley) 3:57
Recorded at Studio Mercredi 9 in June 2010.
Manu Codjia – Guitar
Jerôme Regard – Double Bass
Philippe Garcia – Drums
 
Лог создания рипа
Exact Audio Copy V1.0 beta 3 from 29. August 2011
EAC extraction logfile from 13. September 2013, 11:44
Manu Codjia Trio / Covers
Used drive : SlimtypeeNAU508 5 Adapter: 1 ID: 0
Read mode : Secure
Utilize accurate stream : Yes
Defeat audio cache : Yes
Make use of C2 pointers : No
Read offset correction : 6
Overread into Lead-In and Lead-Out : No
Fill up missing offset samples with silence : Yes
Delete leading and trailing silent blocks : No
Null samples used in CRC calculations : Yes
Used interface : Native Win32 interface for Win NT & 2000
Gap handling : Appended to previous track
Used output format : User Defined Encoder
Selected bitrate : 768 kBit/s
Quality : High
Add ID3 tag : No
Command line compressor : C:\Program Files (x86)\Exact Audio Copy\Flac\flac.exe
Additional command line options : -8 -V -T "ARTIST=%artist%" -T "TITLE=%title%" -T "ALBUM=%albumtitle%" -T "DATE=%year%" -T "TRACKNUMBER=%tracknr%" -T "GENRE=%genre%" -T "PERFORMER=%albuminterpret%" -T "COMPOSER=%composer%" %haslyrics%--tag-from-file=LYRICS="%lyricsfile%"%haslyrics% -T "ALBUMARTIST=%albumartist%" -T "DISCNUMBER=%cdnumber%" -T "TOTALDISCS=%totalcds%" -T "TOTALTRACKS=%numtracks%" -T "COMMENT=%comment%" %source% -o %dest%
TOC of the extracted CD
Track | Start | Length | Start sector | End sector
---------------------------------------------------------
1 | 0:00.00 | 6:33.54 | 0 | 29528
2 | 6:33.54 | 6:34.35 | 29529 | 59113
3 | 13:08.14 | 4:07.51 | 59114 | 77689
4 | 17:15.65 | 3:58.13 | 77690 | 95552
5 | 21:14.03 | 4:12.22 | 95553 | 114474
6 | 25:26.25 | 8:46.36 | 114475 | 153960
7 | 34:12.61 | 3:28.70 | 153961 | 169630
8 | 37:41.56 | 3:57.33 | 169631 | 187438
Track 1
Filename C:\EAC rips\01 - Beat It.wav
Pre-gap length 0:00:02.00
Peak level 100.0 %
Extraction speed 2.1 X
Track quality 99.9 %
Test CRC 347216E7
Copy CRC 347216E7
Accurately ripped (confidence 2) [DDF2F037] (AR v2)
Copy OK
Track 2
Filename C:\EAC rips\02 - Redemption Song.wav
Pre-gap length 0:00:01.39
Peak level 100.0 %
Extraction speed 2.7 X
Track quality 100.0 %
Test CRC 0274710F
Copy CRC 0274710F
Accurately ripped (confidence 2) [21D8978A] (AR v2)
Copy OK
Track 3
Filename C:\EAC rips\03 - Martha.wav
Pre-gap length 0:00:00.67
Peak level 100.0 %
Extraction speed 2.3 X
Track quality 99.9 %
Test CRC BBE6C4F6
Copy CRC BBE6C4F6
Accurately ripped (confidence 2) [63BAEF8A] (AR v2)
Copy OK
Track 4
Filename C:\EAC rips\04 - Requiem pour un con - Je t'aime moi non plus.wav
Peak level 100.0 %
Extraction speed 3.0 X
Track quality 100.0 %
Test CRC C9F9A583
Copy CRC C9F9A583
Accurately ripped (confidence 2) [D0AA2EBC] (AR v2)
Copy OK
Track 5
Filename C:\EAC rips\05 - Halleluyah.wav
Pre-gap length 0:00:02.25
Peak level 100.0 %
Extraction speed 2.7 X
Track quality 99.9 %
Test CRC D51A4AAA
Copy CRC D51A4AAA
Accurately ripped (confidence 2) [E6B2DAF1] (AR v2)
Copy OK
Track 6
Filename C:\EAC rips\06 - Hunting High and Low.wav
Pre-gap length 0:00:01.20
Peak level 100.0 %
Extraction speed 3.7 X
Track quality 100.0 %
Test CRC 1F02D8A7
Copy CRC 1F02D8A7
Accurately ripped (confidence 2) [F000F183] (AR v2)
Copy OK
Track 7
Filename C:\EAC rips\07 - Children's Play Song.wav
Pre-gap length 0:00:03.40
Peak level 100.0 %
Extraction speed 3.5 X
Track quality 100.0 %
Test CRC D12C3EF8
Copy CRC D12C3EF8
Accurately ripped (confidence 2) [C57080F0] (AR v2)
Copy OK
Track 8
Filename C:\EAC rips\08 - Natural Mystic.wav
Pre-gap length 0:00:01.07
Peak level 100.0 %
Extraction speed 3.7 X
Track quality 100.0 %
Test CRC 1EAB64C8
Copy CRC 1EAB64C8
Accurately ripped (confidence 2) [19394A7B] (AR v2)
Copy OK
All tracks accurately ripped
No errors occurred
End of status report
---- CUETools DB Plugin V2.1.4
[CTDB TOCID: eFv0iAzGOkopWvc6bwqASCj2bUY-] found
Submit result: eFv0iAzGOkopWvc6bwqASCj2bUY- has been confirmed
Track | CTDB Status
1 | (1/1) Accurately ripped
2 | (1/1) Accurately ripped
3 | (1/1) Accurately ripped
4 | (1/1) Accurately ripped
5 | (1/1) Accurately ripped
6 | (1/1) Accurately ripped
7 | (1/1) Accurately ripped
8 | (1/1) Accurately ripped
==== Log checksum 3D3F358B35820DE695D54F94F648DB6ADDBD95A45931706A5794B5442E350DFB ====
 
Содержание индексной карты (.CUE)
REM GENRE Jazz
REM DATE 2010
REM DISCID 6609C308
REM COMMENT "ExactAudioCopy v1.0b3"
CATALOG 3760002139968
PERFORMER "Manu Codjia Trio"
TITLE "Covers"
FILE "01 - Beat It.wav" WAVE
TRACK 01 AUDIO
TITLE "Beat It"
PERFORMER "Manu Codjia Trio"
ISRC FR66V1005097
INDEX 01 00:00:00
TRACK 02 AUDIO
TITLE "Redemption Song"
PERFORMER "Manu Codjia Trio"
ISRC FR66V1005098
INDEX 00 06:32:15
FILE "02 - Redemption Song.wav" WAVE
INDEX 01 00:00:00
TRACK 03 AUDIO
TITLE "Martha"
PERFORMER "Manu Codjia Trio"
ISRC FR66V1005099
INDEX 00 06:33:43
FILE "03 - Martha.wav" WAVE
INDEX 01 00:00:00
FILE "04 - Requiem pour un con - Je t'aime moi non plus.wav" WAVE
TRACK 04 AUDIO
TITLE "Requiem pour un con / Je t'aime moi non plus"
PERFORMER "Manu Codjia Trio"
ISRC FR66V1005100
INDEX 01 00:00:00
TRACK 05 AUDIO
TITLE "Halleluyah"
PERFORMER "Manu Codjia Trio"
ISRC FR66V1005101
INDEX 00 03:55:63
FILE "05 - Halleluyah.wav" WAVE
INDEX 01 00:00:00
TRACK 06 AUDIO
TITLE "Hunting High and Low"
PERFORMER "Manu Codjia Trio"
ISRC FR66V1005102
INDEX 00 04:11:02
FILE "06 - Hunting High and Low.wav" WAVE
INDEX 01 00:00:00
TRACK 07 AUDIO
TITLE "Children's Play Song"
PERFORMER "Manu Codjia Trio"
ISRC FR66V1005103
INDEX 00 08:42:71
FILE "07 - Children's Play Song.wav" WAVE
INDEX 01 00:00:00
TRACK 08 AUDIO
TITLE "Natural Mystic"
PERFORMER "Manu Codjia Trio"
ISRC FR66V1005104
INDEX 00 03:27:63
FILE "08 - Natural Mystic.wav" WAVE
INDEX 01 00:00:00
Any questions -> support@pro-jazz.com. По всем вопросам пишите -> support@pro-jazz.com
18:26
150
Нет комментариев. Ваш будет первым!