Вы используете незарегистрированную версию компонента "Вкладки"!

Поиск

(Contemporary Jazz, Modern Creative) Bobby Previte's Latin For Travelers - Dangerous Rip - 1998, FLAC (tracks+.cue), lossless

(Contemporary Jazz, Modern Creative) Bobby Previte's Latin For Travelers - Dangerous Rip - 1998, FLAC (tracks+.cue), lossless
Треклист:
Bobby Previte's Latin For Travelers / Dangerous Rip
Жанр: Contemporary Jazz, Modern Creative
Страна-производитель диска: Germany
Год издания диска: 1998
Издатель (лейбл): Enja Records
Номер по каталогу: ENJ-9324 2
Страна: US
Аудиокодек: FLAC (*.flac)
Тип рипа: tracks+.cue
Битрейт аудио: lossless
Продолжительность: 56:48
Источник (релизер): what.cd
Наличие сканов в содержимом раздачи: да
Треклист:
1. Heart On My Sleeve
2. Clear The Bridge
3. You Tell Me
4. Bobby's New Mood
5. Open Jaw
6. Surf Medley
 
Лог создания рипа
Exact Audio Copy V0.99 prebeta 4 from 23. January 2008
EAC extraction logfile from 8. January 2009, 15:28
Bobby Previte / Dangerous Rip
Used drive : _NEC DVD_RW ND-3520A Adapter: 0 ID: 0
Read mode : Secure
Utilize accurate stream : Yes
Defeat audio cache : Yes
Make use of C2 pointers : No
Read offset correction : 48
Overread into Lead-In and Lead-Out : No
Fill up missing offset samples with silence : Yes
Delete leading and trailing silent blocks : No
Null samples used in CRC calculations : Yes
Used interface : Native Win32 interface for Win NT & 2000
Gap handling : Appended to previous track
Used output format : User Defined Encoder
Selected bitrate : 128 kBit/s
Quality : High
Add ID3 tag : No
Command line compressor : D:\a_programi\FLAC\flac.exe
Additional command line options : -V -8 -T "artist=%a" -T "title=%t" -T "album=%g" -T "date=%y" -T "tracknumber=%n" -T "genre=%m" %s
TOC of the extracted CD
Track | Start | Length | Start sector | End sector
---------------------------------------------------------
1 | 0:00.00 | 5:21.15 | 0 | 24089
2 | 5:21.15 | 8:45.73 | 24090 | 63537
3 | 14:07.13 | 11:29.59 | 63538 | 115271
4 | 25:36.72 | 11:40.22 | 115272 | 167793
5 | 37:17.19 | 11:56.41 | 167794 | 221534
6 | 49:13.60 | 7:35.06 | 221535 | 255665
Track 1
Filename L:\peci\previte\01 - Bobby Previte - Heart On My Sleeve.wav
Pre-gap length 0:00:02.00
Peak level 94.3 %
Track quality 99.8 %
Test CRC 7693A373
Copy CRC 7693A373
Copy OK
Track 2
Filename L:\peci\previte\02 - Bobby Previte - Clear The Bridge.wav
Pre-gap length 0:00:01.60
Peak level 94.4 %
Track quality 99.9 %
Test CRC 3E469623
Copy CRC 3E469623
Copy OK
Track 3
Filename L:\peci\previte\03 - Bobby Previte - You Tell Me.wav
Pre-gap length 0:00:08.89
Peak level 94.4 %
Track quality 100.0 %
Test CRC 5279512E
Copy CRC 5279512E
Copy OK
Track 4
Filename L:\peci\previte\04 - Bobby Previte - Bobby's New Mood.wav
Pre-gap length 0:00:19.60
Peak level 94.3 %
Track quality 99.9 %
Test CRC 102FF320
Copy CRC 102FF320
Copy OK
Track 5
Filename L:\peci\previte\05 - Bobby Previte - Open Jaw.wav
Pre-gap length 0:00:01.58
Peak level 94.4 %
Track quality 100.0 %
Test CRC 3918CDC4
Copy CRC 3918CDC4
Copy OK
Track 6
Filename L:\peci\previte\06 - Bobby Previte - Surf Medley.wav
Pre-gap length 0:00:17.77
Peak level 84.1 %
Track quality 100.0 %
Test CRC FA1D011F
Copy CRC FA1D011F
Copy OK
No errors occurred
End of status report
 
Содержание индексной карты (.CUE)
REM GENRE "Contemporary Jazz"
REM DATE 1998
REM DISCID 550D5006
REM COMMENT "ExactAudioCopy v0.99pb4"
PERFORMER "Bobby Previte"
TITLE "Dangerous Rip"
FILE "01 - Bobby Previte - Heart On My Sleeve.wav" WAVE
TRACK 01 AUDIO
TITLE "Heart On My Sleeve"
PERFORMER "Bobby Previte"
FLAGS DCP
INDEX 01 00:00:00
TRACK 02 AUDIO
TITLE "Clear The Bridge"
PERFORMER "Bobby Previte"
FLAGS DCP
INDEX 00 05:19:45
FILE "02 - Bobby Previte - Clear The Bridge.wav" WAVE
INDEX 01 00:00:00
TRACK 03 AUDIO
TITLE "You Tell Me"
PERFORMER "Bobby Previte"
FLAGS DCP
INDEX 00 08:37:06
FILE "03 - Bobby Previte - You Tell Me.wav" WAVE
INDEX 01 00:00:00
TRACK 04 AUDIO
TITLE "Bobby's New Mood"
PERFORMER "Bobby Previte"
FLAGS DCP
INDEX 00 11:10:14
FILE "04 - Bobby Previte - Bobby's New Mood.wav" WAVE
INDEX 01 00:00:00
TRACK 05 AUDIO
TITLE "Open Jaw"
PERFORMER "Bobby Previte"
FLAGS DCP
INDEX 00 11:38:53
FILE "05 - Bobby Previte - Open Jaw.wav" WAVE
INDEX 01 00:00:00
TRACK 06 AUDIO
TITLE "Surf Medley"
PERFORMER "Bobby Previte"
FLAGS DCP
INDEX 00 11:38:58
FILE "06 - Bobby Previte - Surf Medley.wav" WAVE
INDEX 01 00:00:00
 
Лог проверки качества
d:\>d:\aucdtect -d/-m0 d:\zzz\*.wav
auCDtect: CD records authenticity detector, version 0.8.2
Copyright (c) 2004 Oleg Berngardt. All rights reserved.
Copyright (c) 2004 Alexander Djourik. All rights reserved.
------------------------------------------------------------
Processing file: [01. Heart On My Sleeve.wav]
------------------------------------------------------------
This track looks like CDDA with probability 100%
------------------------------------------------------------
Processing file: [02. Clear The Bridge.wav]
------------------------------------------------------------
This track looks like CDDA with probability 100%
------------------------------------------------------------
Processing file: [03. You Tell Me.wav]
------------------------------------------------------------
This track looks like CDDA with probability 100%
------------------------------------------------------------
Processing file: [04. Bobby's New Mood.wav]
------------------------------------------------------------
This track looks like CDDA with probability 100%
------------------------------------------------------------
Processing file: [05. Open Jaw.wav]
------------------------------------------------------------
This track looks like CDDA with probability 100%
------------------------------------------------------------
Processing file: [06. Surf Medley.wav]
------------------------------------------------------------
This track looks like CDDA with probability 99%
------------------------------------------------------------
Final Conclusion:
------------------------------------------------------------
These tracks looks like CDDA with probability 100%
 
Скриншот спектра частот
Доп. информация:
 
Album Info
Recorded May 25, 1998 live at Teatro Puccini, Merano, Italy and live at "The Basement", Sydney, Australia, except 6. Recorded January 22, 1997 at Studio zOaR, NYC.
 
Состав
Bobby Previte: drums, voice
Jerome Harris: electric guitar, electric bass, voice
Stewart Cutler: electric guitar
Jamie Saft: hammond organ, Fender Rhodes piano, mini moog, electric bass
Marc Ducret: electric guitar (on 6.)
Any questions -> support@pro-jazz.com. По всем вопросам пишите -> support@pro-jazz.com
14:07
176
Нет комментариев. Ваш будет первым!