Вы используете незарегистрированную версию компонента "Вкладки"!

Поиск

(Avant-Garde) Luther Thomas Human Arts Ensemble (w. Lester Bowie, Joseph Bowie, Charles Bobo Shaw, J.D. Parran etc) - Funky Donkey, Vols. I & II (1973) - 2000, APE (image+.cue) lossless

(Avant-Garde) Luther Thomas Human Arts Ensemble (w. Lester Bowie, Joseph Bowie, Charles Bobo Shaw, J.D. Parran etc) - Funky Donkey, Vols. I & II (1973) - 2000, APE (image+.cue) lossless
Треклист:
Luther Thomas Human Arts Ensemble directs the Saint Louis, Missouri Creative Ensemble - Funky Donkey, Vols. I & II (1973)
Live at Berea Presbyterian Church Laclede Towne, St. Louis, MO.
Жанр: Avant-Garde
Страна-производитель диска: USA
Год издания диска: 2000
Издатель (лейбл): Unheard Music Series / Altavistic
Номер по каталогу: UMS/ALP215CD
Аудио кодек: APE (*.ape)
Тип рипа: image+.cue
Битрейт аудио: lossless
Продолжительность: 01:04:18
Источник (релизер): barin99
Наличие сканов в содержимом раздачи: да
Треклист:
1. Funky Donkey 20:01
2. Una New York 18:08
3. Intensity 26:08
Recorded at Berea Presbyterian Church, St. Louis, Missouri, by Steve Fuller, in Fall, 1973.
Personnel:
Luther Thomas — Sax (Alto)
J.D. Parran — Reeds
Lester Bowie — Trumpet
Joseph Bowie — Trombone
Charles Bobo Shaw — Drums
+
Floyd LeFlore — Trumpet
Harold Pudgey Atterbury — Trumpet
Abdela Ya Kum — Percussion
Rocky Washington — Percussion
Marvin Horne — Guitar
Eric Foreman — Fender Bass
 
Лог создания рипа (EAC Log)
Exact Audio Copy V1.0 beta 1 from 15. November 2010
EAC extraction logfile from 1. June 2011, 18:46
Luther Thomas Human Arts Ensemble / Funky Donkey
Used drive : TSSTcorpDVD+-RW TS-L532B Adapter: 1 ID: 0
Read mode : Secure
Utilize accurate stream : Yes
Defeat audio cache : Yes
Make use of C2 pointers : No
Read offset correction : 704
Overread into Lead-In and Lead-Out : No
Fill up missing offset samples with silence : Yes
Delete leading and trailing silent blocks : No
Null samples used in CRC calculations : Yes
Used interface : Native Win32 interface for Win NT & 2000
Used output format : Internal WAV Routines
Sample format : 44.100 Hz; 16 Bit; Stereo
TOC of the extracted CD
Track | Start | Length | Start sector | End sector
---------------------------------------------------------
1 | 0:01.00 | 20:01.42 | 75 | 90191
2 | 20:02.42 | 18:08.24 | 90192 | 171815
3 | 38:10.66 | 26:08.30 | 171816 | 289445
Range status and errors
Selected range
Filename C:\Documents and Settings\VB\My Documents\BARIN99\Luther Thomas Human Arts Ensemble - Funky Donkey\Luther Thomas Human Arts Ensemble - Funky Donkey.wav
Peak level 97.6 %
Extraction speed 1.1 X
Range quality 99.9 %
Copy CRC F44DBC9D
Copy OK
No errors occurred
AccurateRip summary
Track 1 accurately ripped (confidence 2) [26843AA9]
Track 2 accurately ripped (confidence 2) [8487FECE]
Track 3 accurately ripped (confidence 2) [B6C2171B]
All tracks accurately ripped
End of status report
 
Содержание индексной карты (.CUE)
REM GENRE jazz
REM DATE 1973
REM DISCID 190F1203
REM COMMENT "ExactAudioCopy v1.0b1"
PERFORMER "Luther Thomas Human Arts Ensemble"
TITLE "Funky Donkey"
FILE "Luther Thomas Human Arts Ensemble - Funky Donkey.ape" WAVE
TRACK 01 AUDIO
TITLE "Funky Donkey"
PERFORMER "Luther Thomas Human Arts Ensemble"
INDEX 00 00:00:00
INDEX 01 00:01:00
TRACK 02 AUDIO
TITLE "Una New York"
PERFORMER "Luther Thomas Human Arts Ensemble"
INDEX 01 20:02:42
TRACK 03 AUDIO
TITLE "Intensity"
PERFORMER "Luther Thomas Human Arts Ensemble"
INDEX 00 38:09:73
INDEX 01 38:10:66
 
AMG
"Recorded in a church in 1973, this is one of the great lost albums of '70s free jazz. The label 'free,' though, is something of a misnomer. There's structure here, just not a classical, rigid, 'now it's your turn' thing that binds so much of jazz. Here the structure is supplied by mutual respect and the kind of telepathy that only comes from long sessions and careful study of the rules before you break them. Sure, this stuff is loose, but it stomps, it sways, and, good Lord, it swings. Just the thing to get us into church. As an added note, Charles 'Bobo' Shaw is, as always, a revelation."
Any questions -> support@pro-jazz.com. По всем вопросам пишите -> support@pro-jazz.com
14:07
192
Нет комментариев. Ваш будет первым!