Вы используете незарегистрированную версию компонента "Вкладки"!

Поиск

(Contemporary Jazz/ Modern Big Band) Maria Schneider Jazz Orchestra - Live At The Jazz Standard - Days Of Wine And Roses - 2005, FLAC (tracks+.cue), lossless

Треклист:
Maria Schneider Orchestra
Live At The Jazz Standard
Days Of Wine And Roses
Жанр: Contemporary Jazz/ Modern Big Band
Год издания диска: 2005
Издатель (лейбл): artistShare™
Номер по каталогу: artistshare 0017
Аудиокодек: FLAC (*.flac)
Тип рипа: tracks+.cue
Битрейт аудио: lossless
Продолжительность: 1:04:23
Источник (релизер): avaxhome.ws
Наличие сканов в содержимом раздачи: да

Треклист:
01. Lately (8:47)
02. The Willow (7:07)
03. That Old Black Magic (5:34)
04. My Ideal (7:20)
05. Last Season (2:49)
06. Comecar De Novo (6:44)
07. Days Of Wine And Roses (8:46)
08. Over The Rainbow (7:23)
09. Bird Count (9:53)
 
Лог создания рипа
Exact Audio Copy V1.0 beta 1 from 15. November 2010
EAC extraction logfile from 1. April 2011, 4:06
Maria Schneider Jazz Orchestra / Live At The Jazz Standard - Days Of Wine And Roses
Used drive : _NEC DVD_RW ND-3520A Adapter: 1 ID: 0
Read mode : Secure
Utilize accurate stream : Yes
Defeat audio cache : Yes
Make use of C2 pointers : No
Read offset correction : 48
Overread into Lead-In and Lead-Out : No
Fill up missing offset samples with silence : Yes
Delete leading and trailing silent blocks : No
Null samples used in CRC calculations : Yes
Used interface : Installed external ASPI interface
Gap handling : Appended to previous track
Used output format : User Defined Encoder
Selected bitrate : 1024 kBit/s
Quality : High
Add ID3 tag : No
Command line compressor : C:\Program Files\Exact Audio Copy\FLAC\FLAC.EXE
Additional command line options : -8 -V -T "ARTIST=%a" -T "TITLE=%t" -T "ALBUM=%g" -T "DATE=%y" -T "TRACKNUMBER=%n" -T "TOTALTRACKS=%x" -T "GENRE=%m" -T "ALBUMARTIST=%v" -T "ALBUM ARTIST=%v" -T "COMMENT=EAC Secure Mode, Test & Copy, AccurateRip, FLAC -8" %s
TOC of the extracted CD
Track | Start | Length | Start sector | End sector
---------------------------------------------------------
1 | 0:00.00 | 8:46.57 | 0 | 39506
2 | 8:46.57 | 7:06.68 | 39507 | 71524
3 | 15:53.50 | 5:33.50 | 71525 | 96549
4 | 21:27.25 | 7:20.10 | 96550 | 129559
5 | 28:47.35 | 2:49.02 | 129560 | 142236
6 | 31:36.37 | 6:44.08 | 142237 | 172544
7 | 38:20.45 | 8:45.67 | 172545 | 211986
8 | 47:06.37 | 7:22.65 | 211987 | 245201
9 | 54:29.27 | 9:53.23 | 245202 | 289699
Track 1
Filename C:\Documents and Settings\All Users\Documents\Uploads\Ex\Maria Schneider Orchestra - Days Of Wine And Roses (2000) [FLAC]\01 - Lately.wav
Pre-gap length 0:00:02.00
Peak level 99.8 %
Extraction speed 1.3 X
Track quality 100.0 %
Test CRC 37D46AAC
Copy CRC 37D46AAC
Accurately ripped (confidence 1) [CB623584]
Copy OK
Track 2
Filename C:\Documents and Settings\All Users\Documents\Uploads\Ex\Maria Schneider Orchestra - Days Of Wine And Roses (2000) [FLAC]\02 - The Willow.wav
Pre-gap length 0:00:02.27
Peak level 99.7 %
Extraction speed 4.2 X
Track quality 100.0 %
Test CRC 76F9D416
Copy CRC 76F9D416
Accurately ripped (confidence 1) [3C0EA085]
Copy OK
Track 3
Filename C:\Documents and Settings\All Users\Documents\Uploads\Ex\Maria Schneider Orchestra - Days Of Wine And Roses (2000) [FLAC]\03 - That Old Black Magic.wav
Peak level 99.8 %
Extraction speed 4.6 X
Track quality 100.0 %
Test CRC F7EF3E43
Copy CRC F7EF3E43
Accurately ripped (confidence 1) [F9769752]
Copy OK
Track 4
Filename C:\Documents and Settings\All Users\Documents\Uploads\Ex\Maria Schneider Orchestra - Days Of Wine And Roses (2000) [FLAC]\04 - My Ideal.wav
Peak level 99.8 %
Extraction speed 5.5 X
Track quality 100.0 %
Test CRC D796A378
Copy CRC D796A378
Accurately ripped (confidence 1) [0327AAEB]
Copy OK
Track 5
Filename C:\Documents and Settings\All Users\Documents\Uploads\Ex\Maria Schneider Orchestra - Days Of Wine And Roses (2000) [FLAC]\05 - Last Season.wav
Peak level 45.7 %
Extraction speed 3.9 X
Track quality 99.9 %
Test CRC C61C2143
Copy CRC C61C2143
Accurately ripped (confidence 1) [84CA7403]
Copy OK
Track 6
Filename C:\Documents and Settings\All Users\Documents\Uploads\Ex\Maria Schneider Orchestra - Days Of Wine And Roses (2000) [FLAC]\06 - Comecar De Novo.wav
Peak level 99.8 %
Extraction speed 5.2 X
Track quality 99.9 %
Test CRC 54B440E0
Copy CRC 54B440E0
Accurately ripped (confidence 1) [303485AE]
Copy OK
Track 7
Filename C:\Documents and Settings\All Users\Documents\Uploads\Ex\Maria Schneider Orchestra - Days Of Wine And Roses (2000) [FLAC]\07 - Days Of Wine And Roses.wav
Peak level 99.8 %
Extraction speed 5.9 X
Track quality 99.9 %
Test CRC 75B87489
Copy CRC 75B87489
Accurately ripped (confidence 1) [8D9E83A2]
Copy OK
Track 8
Filename C:\Documents and Settings\All Users\Documents\Uploads\Ex\Maria Schneider Orchestra - Days Of Wine And Roses (2000) [FLAC]\08 - Over The Rainbow.wav
Peak level 99.8 %
Extraction speed 4.2 X
Track quality 99.9 %
Test CRC 9F3B6AAE
Copy CRC 9F3B6AAE
Accurately ripped (confidence 1) [B6895C84]
Copy OK
Track 9
Filename C:\Documents and Settings\All Users\Documents\Uploads\Ex\Maria Schneider Orchestra - Days Of Wine And Roses (2000) [FLAC]\09 - Bird Count.wav
Peak level 99.8 %
Extraction speed 3.5 X
Track quality 100.0 %
Test CRC 10E80E59
Copy CRC 10E80E59
Accurately ripped (confidence 1) [E273020B]
Copy OK
All tracks accurately ripped
No errors occurred
End of status report
==== Log checksum EA9F25A74286C03BEC430547BAF72D6B4F0251B7534F6ABE871229AFD07FC47C ====
 
Содержание индексной карты (.CUE)
REM GENRE Jazz
REM DATE 2000
REM DISCID 8D0F1609
REM COMMENT "ExactAudioCopy v1.0b1"
PERFORMER "Maria Schneider Jazz Orchestra"
TITLE "Live At The Jazz Standard - Days Of Wine And Roses"
FILE "01 - Lately.wav" WAVE
TRACK 01 AUDIO
TITLE "Lately"
PERFORMER "Maria Schneider Jazz Orchestra"
INDEX 01 00:00:00
TRACK 02 AUDIO
TITLE "The Willow"
PERFORMER "Maria Schneider Jazz Orchestra"
INDEX 00 08:44:30
FILE "02 - The Willow.wav" WAVE
INDEX 01 00:00:00
FILE "03 - That Old Black Magic.wav" WAVE
TRACK 03 AUDIO
TITLE "That Old Black Magic"
PERFORMER "Maria Schneider Jazz Orchestra"
INDEX 01 00:00:00
FILE "04 - My Ideal.wav" WAVE
TRACK 04 AUDIO
TITLE "My Ideal"
PERFORMER "Maria Schneider Jazz Orchestra"
INDEX 01 00:00:00
FILE "05 - Last Season.wav" WAVE
TRACK 05 AUDIO
TITLE "Last Season"
PERFORMER "Maria Schneider Jazz Orchestra"
INDEX 01 00:00:00
FILE "06 - Comecar De Novo.wav" WAVE
TRACK 06 AUDIO
TITLE "Comecar De Novo"
PERFORMER "Maria Schneider Jazz Orchestra"
INDEX 01 00:00:00
FILE "07 - Days Of Wine And Roses.wav" WAVE
TRACK 07 AUDIO
TITLE "Days Of Wine And Roses"
PERFORMER "Maria Schneider Jazz Orchestra"
INDEX 01 00:00:00
FILE "08 - Over The Rainbow.wav" WAVE
TRACK 08 AUDIO
TITLE "Over The Rainbow"
PERFORMER "Maria Schneider Jazz Orchestra"
INDEX 01 00:00:00
FILE "09 - Bird Count.wav" WAVE
TRACK 09 AUDIO
TITLE "Bird Count"
PERFORMER "Maria Schneider Jazz Orchestra"
INDEX 01 00:00:00
 
Лог проверки качества
AUDIOCHECKER v2.0 beta (build 457) - by Dester - opdester@freemail.hu
~~~~~~~~~~~~~~~~~~~~~~~~~~~~~~~~~~
-=== DO NOT EDIT THIS FILE! ===-
Path: ...\Maria Schneider Orchestra - Days Of Wine And Roses (2005)
1 -=- 01 - Lately.flac -=- CDDA (100%)
2 -=- 02 - The Willow.flac -=- CDDA (100%)
3 -=- 03 - That Old Black Magic.flac -=- CDDA (100%)
4 -=- 04 - My Ideal.flac -=- CDDA (100%)
5 -=- 05 - Last Season.flac -=- MPEG (100%)
6 -=- 06 - Comecar De Novo.flac -=- CDDA (100%)
7 -=- 07 - Days Of Wine And Roses.flac -=- CDDA (99%)
8 -=- 08 - Over The Rainbow.flac -=- CDDA (100%)
9 -=- 09 - Bird Count.flac -=- CDDA (100%)
Summary 88,78% CDDA
184529780
 
Состав
Personnel:
Maria Schneider - composer, arranger, conductor
Tim Ries - alto, soprano, clarinet and flute
Charles Pillow - alto, soprano, clarinet and flute
Rich Perry - tenor sax and flute
Rick Margitza - tenor sax and flute
Scott Robinson - baritone and bass saxes, clarinet and bass clarinet, clarinet and flute
Tony Kadleck - trumpet and fluegelhorn
Greg Gisbert - trumpet and fluegelhorn
Laurie Frink - trumpet and fluegelhorn
Ingrid Jensen - trumpet and fluegelhorn
Keith O'Quinn - trombone
Rock Ciccarone - trombone
Larry Farrell - trombone
George Flynn bass - trombone
Ben Monder - guitar
Frank Kimbrough - piano
Tony Scherr - bass
Tim Horner - drums
Any questions - support@pro-jazz.com. Есть вопросы - support@pro-jazz.com
07:46
306
Нет комментариев. Ваш будет первым!