Поиск

(Contemporary Jazz/ Modern Big Band) Maria Schneider Jazz Orchestra - Coming About - 1996, FLAC (tracks+.cue), lossless

Треклист:
Maria Schneider Jazz Orchestra
Coming About
Жанр: Contemporary Jazz/ Modern Big Band
Страна-производитель диска: Germany
Год издания диска: 1996
Издатель (лейбл): Enja Records
Номер по каталогу: enj-9069 2
Аудиокодек: FLAC (*.flac)
Тип рипа: tracks+.cue
Битрейт аудио: lossless
Продолжительность: 1:07:48
Источник (релизер): 0xxa
Наличие сканов в содержимом раздачи: да

Треклист:
01. El Viento (11:17)
02. Love Theme from 'Spartacus' (7:04)
03. Scenes from Childhood: Part 1: Bombshelter Beast (9:43)
04. Scenes from Childhood: Part 2: Night Watchmen (11:26)
05. Scenes from Childhood: Part 3: Coming About (12:48)
06. Giant Steps (7:45)
07. Waxwing (7:46)
 
Лог создания рипа
Exact Audio Copy V0.99 prebeta 5 from 4. May 2009
EAC extraction logfile from 11. June 2011, 12:04
Maria Schneider Jazz Orchestra / Coming About
Used drive  : TEAC    DV-516G   Adapter: 3  ID: 1
Read mode               : Secure
Utilize accurate stream : Yes
Defeat audio cache      : Yes
Make use of C2 pointers : No
Read offset correction                      : 6
Overread into Lead-In and Lead-Out          : No
Fill up missing offset samples with silence : Yes
Delete leading and trailing silent blocks   : No
Null samples used in CRC calculations       : Yes
Used interface                              : Native Win32 interface for Win NT & 2000
Gap handling                                : Appended to previous track
Used output format              : User Defined Encoder
Selected bitrate                : 1024 kBit/s
Quality                         : High
Add ID3 tag                     : No
Command line compressor         : C:\FLAC\flac.exe
Additional command line options : -8 -V -T "ARTIST=%a" -T "TITLE=%t" -T "ALBUM=%g" -T "DATE=%y" -T "TRACKNUMBER=%n" -T "TOTALTRACKS=%x" -T "GENRE=%m" -T "ALBUMARTIST=%v" -T "ALBUM ARTIST=%v" -T "COMMENT=EAC Secure Mode, Test & Copy, AccurateRip, FLAC -8" %s
TOC of the extracted CD
     Track |   Start  |  Length  | Start sector | End sector
    ---------------------------------------------------------
        1  |  0:00.00 | 11:17.07 |         0    |    50781
        2  | 11:17.07 |  7:04.15 |     50782    |    82596
        3  | 18:21.22 |  9:42.65 |     82597    |   126311
        4  | 28:04.12 | 11:25.63 |    126312    |   177749
        5  | 39:30.00 | 12:47.62 |    177750    |   235336
        6  | 52:17.62 |  7:44.48 |    235337    |   270184
        7  | 60:02.35 |  7:45.47 |    270185    |   305106
Track  1
     Filename C:\maria1996\01 - El Viento.wav
     Pre-gap length  0:00:02.00
     Peak level 98.8 %
     Track quality 100.0 %
     Test CRC 0BD380F2
     Copy CRC 0BD380F2
     Accurately ripped (confidence 12)  [42013435]
     Copy OK
Track  2
     Filename C:\maria1996\02 - Love Theme from 'Spartacus'.wav
     Peak level 91.7 %
     Track quality 100.0 %
     Test CRC 95CA72C7
     Copy CRC 95CA72C7
     Accurately ripped (confidence 12)  [7908F8B4]
     Copy OK
Track  3
     Filename C:\maria1996\03 - Scenes from Childhood-  Part 1- Bombshelter Beast.wav
     Peak level 98.8 %
     Track quality 100.0 %
     Test CRC 3968942B
     Copy CRC 3968942B
     Accurately ripped (confidence 11)  [7C773621]
     Copy OK
Track  4
     Filename C:\maria1996\04 - Scenes from Childhood-  Part 2- Night Watchmen.wav
     Peak level 98.8 %
     Track quality 100.0 %
     Test CRC 7C366248
     Copy CRC 7C366248
     Accurately ripped (confidence 12)  [252DDD6D]
     Copy OK
Track  5
     Filename C:\maria1996\05 - Scenes from Childhood-  Part 3- Coming About.wav
     Peak level 98.8 %
     Track quality 100.0 %
     Test CRC F633C548
     Copy CRC F633C548
     Accurately ripped (confidence 12)  [EB6F89B8]
     Copy OK
Track  6
     Filename C:\maria1996\06 - Giant Steps.wav
     Peak level 98.8 %
     Track quality 100.0 %
     Test CRC C5C2B238
     Copy CRC C5C2B238
     Accurately ripped (confidence 12)  [25957227]
     Copy OK
Track  7
     Filename C:\maria1996\07 - Waxwing.wav
     Peak level 91.6 %
     Track quality 100.0 %
     Test CRC 9E7C0A0D
     Copy CRC 9E7C0A0D
     Accurately ripped (confidence 9)  [92E78D40]
     Copy OK
All tracks accurately ripped
No errors occurred
End of status report
 
 
Содержание индексной карты (.CUE)
REM GENRE Jazz
REM DATE 1996
REM DISCID 5D0FE407
REM COMMENT "ExactAudioCopy v0.99pb5"
PERFORMER "Maria Schneider Jazz Orchestra"
TITLE "Coming About"
FILE "01 - El Viento.wav" WAVE
  TRACK 01 AUDIO
    TITLE "El Viento"
    PERFORMER "Maria Schneider Jazz Orchestra"
    INDEX 01 00:00:00
FILE "02 - Love Theme from 'Spartacus'.wav" WAVE
  TRACK 02 AUDIO
    TITLE "Love Theme from 'Spartacus'"
    PERFORMER "Maria Schneider Jazz Orchestra"
    INDEX 01 00:00:00
FILE "03 - Scenes from Childhood-  Part 1- Bombshelter Beast.wav" WAVE
  TRACK 03 AUDIO
    TITLE "Scenes from Childhood:  Part 1: Bombshelter Beast"
    PERFORMER "Maria Schneider Jazz Orchestra"
    INDEX 01 00:00:00
FILE "04 - Scenes from Childhood-  Part 2- Night Watchmen.wav" WAVE
  TRACK 04 AUDIO
    TITLE "Scenes from Childhood:  Part 2: Night Watchmen"
    PERFORMER "Maria Schneider Jazz Orchestra"
    INDEX 01 00:00:00
FILE "05 - Scenes from Childhood-  Part 3- Coming About.wav" WAVE
  TRACK 05 AUDIO
    TITLE "Scenes from Childhood:  Part 3: Coming About"
    PERFORMER "Maria Schneider Jazz Orchestra"
    INDEX 01 00:00:00
FILE "06 - Giant Steps.wav" WAVE
  TRACK 06 AUDIO
    TITLE "Giant Steps"
    PERFORMER "Maria Schneider Jazz Orchestra"
    INDEX 01 00:00:00
FILE "07 - Waxwing.wav" WAVE
  TRACK 07 AUDIO
    TITLE "Waxwing"
    PERFORMER "Maria Schneider Jazz Orchestra"
    INDEX 01 00:00:00
 
 
Лог проверки качества
AUDIOCHECKER v2.0 beta (build 457) - by Dester - opdester@freemail.hu
~~~~~~~~~~~~~~~~~~~~~~~~~~~~~~~~~~
-=== DO NOT EDIT THIS FILE! ===-
Path: ...\Maria Schneider Jazz Orchestra - Coming About (1996)
1 -=- 01 - El Viento.flac -=- CDDA (100%)
2 -=- 02 - Love Theme from 'Spartacus'.flac -=- CDDA (99%)
3 -=- 03 - Scenes from Childhood-  Part 1- Bombshelter Beast.flac -=- CDDA (100%)
4 -=- 04 - Scenes from Childhood-  Part 2- Night Watchmen.flac -=- CDDA (99%)
5 -=- 05 - Scenes from Childhood-  Part 3- Coming About.flac -=- CDDA (100%)
6 -=- 06 - Giant Steps.flac -=- CDDA (100%)
7 -=- 07 - Waxwing.flac -=- CDDA (100%)
Summary 99,71% CDDA
29676276
 
 
Состав
Personnel:
Mark Vinci - alto and soprano saxes, clarinet, flute and alto flute
Tim Ries - alto and soprano saxes, clarinet and flute
Rich Perry - tenor sax
Rick Margitza - tenor sax
Scott Robinson - baritone sax, bass clarinet, clarinet, flute and theremin
Tony Kadleck - trumpet and fluegelhorn
Greg Gisbert - trumpet and fluegelhorn
Laurie Frink - trumpet and fluegelhorn
Tim Hagans - trumpet and fluegelhorn
Keith O'Quinn - trombone
Rock Ciccarone - trombone
Larry Farrell - trombone
George Flynn bass - trombone
Ben Monder - guitar
Frank Kimbrough - piano
Tony Scherr - acoustic and electric bass
Tim Horner - drums
По всем вопросам пишите личное сообщение пользователю M0p94ok.
06:45
317
Нет комментариев. Ваш будет первым!