Вы используете незарегистрированную версию компонента "Вкладки"!

Поиск

(Contemporary Jazz) Maria Kannegaard - Maryland (feat. Hakon Kornstad) - 2008, FLAC (image+.cue), lossless

(Contemporary Jazz) Maria Kannegaard - Maryland (feat. Hakon Kornstad) - 2008, FLAC (image+.cue), lossless
Треклист:
Maria Kannegaard - Maryland (feat. Hakon Kornstad)
Жанр: Contemporary Jazz
Год выпуска диска: 2008
Производитель диска: Sweden (Moserobie MMPCD059)
Аудио кодек: FLAC
Тип рипа: image+.cue
Битрейт аудио: lossless
Продолжительность: 50:15
Maria Kannegaard piano
Håkon Kornstad tenor saxophone
Ole Morten Vågan double-bass
Håkon Mjåset Johansen drums
1. Sjufire
2. Ruslende
3. Ballade 1
4. Av Veien
5. Bethesda
6. En Tålmodig Sjel
7. Ballade 2
8. Hit Og Dit / Ingen Hast
9. Første Vake
10. Yeah, Yeah
 
AAJ Review
While a new generation of Scandinavian musicians explores the integration of electronics and live sampling with conventional instrumentation, it's easy to forget that many of these intrepid young artists have an equally strong foundation in the jazz tradition. Danish-born but now Norwegian-resident pianist Maria Kannegaard, who graduated from Trondheim University in Jazz Performance, has been exploring the acoustic side of things, although at least one of her partners on Maryland—saxophonist Hakon Kornstad—has been equally deep into the arena of Nu Jazz and electro-centric improvisation.
In the all-acoustic context of Maryland, however, Kornstad proves no stranger to Kannegaard's stylistic melange of Keith Jarrett, Bill Evans, Herbie Nichols and Thelonious Monk, all filtered through a distinctly Norwegian lens that is counter the traditional reputation of "Nordic Cool" but, with hints of classicism and folkloric elements peaking through occasionally, is undeniably Scandinavian in complexion.
Kannagaard's other band mates—bassist Ole Morten Vagan—heard recently with saxophonist Tore Brunborg on the JazzNorway in a Nutshell 2008 junket, but who has been cropping up with increasing frequency on albums by pianist Havard Wiik and Motif, and drummer Hakon Mjaset Johansen, another member of Wiik's trio and Motif—make for a flexible rhythm team that are equal conversationalists on this set of original material (all but one tune by Kannegaard). There's a quirky confluence of spare beauty and oblique freedom on "Ballade 1," a tone poem where Kannegaard's romanticism juxtaposes with Kornstad's soft use of a style of multiphonics that he's carefully evolved on albums including his own Single Engine (Jazzland, 2007).
Kornstad is, in fact, rapidly becoming one of Norway's most important young saxophonists, as comfortable with the rock-edged electronica of Wibutee as he is the more diverse setting of Jazzland Community (Jazzland, 2007). His playing, effortlessly integrating a mastery of extended techniques that are all over Maryland, is at its strongest on "Av veien," where a knotty unison theme and visceral groove acts as rallying point for a freely improvised middle section, where Vagan's strummed chords synchronize perfectly with Johansen, while Kannegaard deftly combines idiosyncrasy and lyricism.
Vagan's sole compositional contribution, "Bethesda," meshes a gently turbulent opening and an elegant balladic groove, dark-hued and based around collective improvisation that favors simplicity, gradually shifting repetition and slowly intensifying dynamics over definitive motivic development. Though Monk-like in its playfulness, Kannegaard's less blocky playing on "En talmodig sjel," alongside Johansen's textural tendencies and an overall freer disposition, distances it, even as it refers to its source in the subtlest of terms with a cleverly implied swing from Vagan and Johansen that supports Kornstad's increasingly fervent interplay with the pianist.
What makes Maryland such a compelling album, where freedom is paramount, is its equal and unequivocal penchant for simple melody and unforced interplay. Group improvisation, couched in diverse contexts through Kannegaard's cerebral yet evocative writing, never sounded this pretty.
~ John Kelman, AAJ
 
EAC Report
Exact Audio Copy V0.99 prebeta 4 from 23. January 2008
EAC extraction logfile from 25. April 2009, 13:36
Maria Kannegaard / Maryland
Used drive : TSSTcorpCD/DVDW SH-S182M Adapter: 2 ID: 0
Read mode : Secure
Utilize accurate stream : Yes
Defeat audio cache : Yes
Make use of C2 pointers : No
Read offset correction : 6
Overread into Lead-In and Lead-Out : No
Fill up missing offset samples with silence : Yes
Delete leading and trailing silent blocks : No
Null samples used in CRC calculations : Yes
Used interface : Installed external ASPI interface
Used output format : User Defined Encoder
Selected bitrate : 1024 kBit/s
Quality : High
Add ID3 tag : No
Command line compressor : C:\Program Files\Exact Audio Copy\FLAC\FLAC.EXE
Additional command line options : -8 -V -T "ARTIST=%a" -T "TITLE=%t" -T "ALBUM=%g" -T "DATE=%y" -T "TRACKNUMBER=%n" -T "GENRE=%m" -T "COMMENT=%e" %s -o %d
TOC of the extracted CD
Track | Start | Length | Start sector | End sector
---------------------------------------------------------
1 | 0:00.00 | 3:52.58 | 0 | 17457
2 | 3:52.58 | 5:42.29 | 17458 | 43136
3 | 9:35.12 | 5:21.53 | 43137 | 67264
4 | 14:56.65 | 6:54.29 | 67265 | 98343
5 | 21:51.19 | 4:38.08 | 98344 | 119201
6 | 26:29.27 | 5:07.20 | 119202 | 142246
7 | 31:36.47 | 4:14.44 | 142247 | 161340
8 | 35:51.16 | 7:23.44 | 161341 | 194609
9 | 43:14.60 | 3:19.52 | 194610 | 209586
10 | 46:34.37 | 3:40.44 | 209587 | 226130
Range status and errors
Selected range
Filename C:\Documents and Settings\Igor\My Documents\My Music\eac\Maria Kannegaard - Maryland.wav
Peak level 98.8 %
Range quality 100.0 %
Test CRC D4DAA36C
Copy CRC D4DAA36C
Copy OK
No errors occurred
AccurateRip summary
Track 1 accurately ripped (confidence 1) [9F9A4487]
Track 2 accurately ripped (confidence 1) [A2037EBD]
Track 3 accurately ripped (confidence 1) [9195CCB9]
Track 4 accurately ripped (confidence 1) [A5EED767]
Track 5 accurately ripped (confidence 1) [928E118C]
Track 6 accurately ripped (confidence 1) [04205A51]
Track 7 accurately ripped (confidence 1) [9B8477A6]
Track 8 accurately ripped (confidence 1) [FE7F0234]
Track 9 accurately ripped (confidence 1) [03A559BB]
Track 10 accurately ripped (confidence 1) [D4D6713F]
All tracks accurately ripped
End of status report

Maria Kannegaard Trio - Camel Walk (2008)
Any questions -> support@pro-jazz.com. По всем вопросам пишите -> support@pro-jazz.com
14:57
147
Нет комментариев. Ваш будет первым!