Поиск

(Contemporary Jazz, Free Improvisation) [CD] Stian Omenas - Klangkammer 2 - 2016, FLAC (tracks+.cue), lossless

(Contemporary Jazz, Free Improvisation) [CD] Stian Omenas - Klangkammer 2 - 2016, FLAC (tracks+.cue), lossless
Треклист:
Stian Omenas / Klangkammer 2
Жанр: Contemporary Jazz, Free Improvisation
Носитель: CD
Страна-производитель диска (релиза): Norway
Год издания: 2016
Издатель (лейбл): NORCD
Номер по каталогу: 1663
Страна исполнителя (группы): Norway
Аудиокодек: FLAC (*.flac)
Тип рипа: tracks+.cue
Битрейт аудио: lossless
Продолжительность: 59:40
Источник (релизер): what.cd (unknown)
Наличие сканов в содержимом раздачи: нет
Треклист:
1 Klanghymne En (Composed By – Stian Omenås) 2:35
2 Kammerrytme En (Composed By – Stian Omenås) 2:59
3 Klangsalme En (Composed By – Stian Omenås) 11:07
4 Fluktkammer (Music By [Improvised By] – Omenås Klangkammer) 3:01
5 Klangsvev (Music By [Improvised By] – Omenås Klangkammer) 11:20
6 Klangtilstand (Music By [Improvised By] – Omenås Klangkammer) 2:46
7 Kammerrytme To (Composed By – Stian Omenås) 1:46
8 Klanghymne To (Composed By – Stian Omenås) 2:48
9 Smertekammer (Music By [Improvised By] – Omenås Klangkammer) 6:35
10 Klangsalme To (Composed By – Stian Omenås) 1:43
11 Klangsildring (Music By [Improvised By] – Omenås Klangkammer) 3:47
12 Kammerdans (Music By [Improvised By] – Omenås Klangkammer) 3:01
13 Klanghymne Tre (Composed By – Stian Omenås) 3:32
14 Klangsprang (Composed By – Stian Omenås) 2:37
 
Лог создания рипа
Exact Audio Copy V1.0 beta 3 from 29. August 2011
EAC extraction logfile from 11. October 2016, 13:27
Stian Omenås / Klangkammer 2
Used drive : HL-DT-STDVDRAM GH22NS70 Adapter: 1 ID: 0
Read mode : Secure
Utilize accurate stream : Yes
Defeat audio cache : Yes
Make use of C2 pointers : No
Read offset correction : 667
Overread into Lead-In and Lead-Out : No
Fill up missing offset samples with silence : Yes
Delete leading and trailing silent blocks : No
Null samples used in CRC calculations : Yes
Used interface : Native Win32 interface for Win NT & 2000
Gap handling : Appended to previous track
Used output format : User Defined Encoder
Selected bitrate : 1024 kBit/s
Quality : High
Add ID3 tag : No
Command line compressor : C:\Program Files\FLAC Frontend\tools\flac.exe
Additional command line options : -8 -e -V -T "ARTIST=%artist%" -T "TITLE=%title%" -T "ALBUM=%albumtitle%" -T "DATE=%year%" -T "TRACKNUMBER=%tracknr%" -T "GENRE=%genre%" -T "PERFORMER=%albuminterpret%" -T "COMPOSER=%composer%" %haslyrics%--tag-from-file=LYRICS="%lyricsfile%"%haslyrics% -T "ALBUMARTIST=%albumartist%" -T "DISCNUMBER=%cdnumber%" -T "TOTALDISCS=%totalcds%" -T "TOTALTRACKS=%numtracks%" -T "COMMENT=%comment%" %source% -o %dest%
TOC of the extracted CD
Track | Start | Length | Start sector | End sector
---------------------------------------------------------
1 | 0:00.00 | 2:34.70 | 0 | 11619
2 | 2:34.70 | 2:58.60 | 11620 | 25029
3 | 5:33.55 | 11:07.42 | 25030 | 75096
4 | 16:41.22 | 3:01.17 | 75097 | 88688
5 | 19:42.39 | 11:20.32 | 88689 | 139720
6 | 31:02.71 | 2:46.42 | 139721 | 152212
7 | 33:49.38 | 1:45.66 | 152213 | 160153
8 | 35:35.29 | 2:48.09 | 160154 | 172762
9 | 38:23.38 | 6:34.65 | 172763 | 202377
10 | 44:58.28 | 1:43.29 | 202378 | 210131
11 | 46:41.57 | 3:47.11 | 210132 | 227167
12 | 50:28.68 | 3:01.49 | 227168 | 240791
13 | 53:30.42 | 3:32.08 | 240792 | 256699
14 | 57:02.50 | 2:37.25 | 256700 | 268499
Track 1
Filename C:\Temp\Uploads\Stian Omenås - Klangkammer 2 (2016)\01. Klanghymne En.wav
Pre-gap length 0:00:02.00
Peak level 70.8 %
Extraction speed 0.9 X
Track quality 100.0 %
Test CRC 0E544B8D
Copy CRC 0E544B8D
Track not present in AccurateRip database
Copy OK
Track 2
Filename C:\Temp\Uploads\Stian Omenås - Klangkammer 2 (2016)\02. Kammerrytme En.wav
Peak level 86.9 %
Extraction speed 1.0 X
Track quality 100.0 %
Test CRC 4777B3FD
Copy CRC 4777B3FD
Track not present in AccurateRip database
Copy OK
Track 3
Filename C:\Temp\Uploads\Stian Omenås - Klangkammer 2 (2016)\03. Klangsalme En.wav
Peak level 80.8 %
Extraction speed 1.4 X
Track quality 100.0 %
Test CRC 9330EA4F
Copy CRC 9330EA4F
Track not present in AccurateRip database
Copy OK
Track 4
Filename C:\Temp\Uploads\Stian Omenås - Klangkammer 2 (2016)\04. Fluktkammer.wav
Peak level 75.6 %
Extraction speed 1.1 X
Track quality 99.9 %
Test CRC 2665C72C
Copy CRC 2665C72C
Track not present in AccurateRip database
Copy OK
Track 5
Filename C:\Temp\Uploads\Stian Omenås - Klangkammer 2 (2016)\05. Klangsvev.wav
Peak level 62.0 %
Extraction speed 1.7 X
Track quality 100.0 %
Test CRC C0AAF942
Copy CRC C0AAF942
Track not present in AccurateRip database
Copy OK
Track 6
Filename C:\Temp\Uploads\Stian Omenås - Klangkammer 2 (2016)\06. Klangtilstand.wav
Peak level 20.1 %
Extraction speed 1.6 X
Track quality 100.0 %
Test CRC 0D392D9A
Copy CRC 0D392D9A
Track not present in AccurateRip database
Copy OK
Track 7
Filename C:\Temp\Uploads\Stian Omenås - Klangkammer 2 (2016)\07. Kammerrytme To.wav
Peak level 82.1 %
Extraction speed 1.2 X
Track quality 99.8 %
Test CRC 8D5023A3
Copy CRC 8D5023A3
Track not present in AccurateRip database
Copy OK
Track 8
Filename C:\Temp\Uploads\Stian Omenås - Klangkammer 2 (2016)\08. Klanghymne To.wav
Peak level 56.0 %
Extraction speed 1.7 X
Track quality 100.0 %
Test CRC 4F6EF363
Copy CRC 4F6EF363
Track not present in AccurateRip database
Copy OK
Track 9
Filename C:\Temp\Uploads\Stian Omenås - Klangkammer 2 (2016)\09. Smertekammer.wav
Peak level 54.3 %
Extraction speed 2.0 X
Track quality 100.0 %
Test CRC CBC3A461
Copy CRC CBC3A461
Track not present in AccurateRip database
Copy OK
Track 10
Filename C:\Temp\Uploads\Stian Omenås - Klangkammer 2 (2016)\10. Klangsalme To.wav
Peak level 53.5 %
Extraction speed 1.6 X
Track quality 100.0 %
Test CRC 9E9EF649
Copy CRC 9E9EF649
Track not present in AccurateRip database
Copy OK
Track 11
Filename C:\Temp\Uploads\Stian Omenås - Klangkammer 2 (2016)\11. Klangsildring.wav
Peak level 40.3 %
Extraction speed 2.0 X
Track quality 100.0 %
Test CRC 1B14926C
Copy CRC 1B14926C
Track not present in AccurateRip database
Copy OK
Track 12
Filename C:\Temp\Uploads\Stian Omenås - Klangkammer 2 (2016)\12. Kammerdans.wav
Peak level 45.2 %
Extraction speed 2.0 X
Track quality 100.0 %
Test CRC DDDDD921
Copy CRC DDDDD921
Track not present in AccurateRip database
Copy OK
Track 13
Filename C:\Temp\Uploads\Stian Omenås - Klangkammer 2 (2016)\13. Klanghymne Tre.wav
Peak level 84.0 %
Extraction speed 2.0 X
Track quality 100.0 %
Test CRC 50FCF499
Copy CRC 50FCF499
Track not present in AccurateRip database
Copy OK
Track 14
Filename C:\Temp\Uploads\Stian Omenås - Klangkammer 2 (2016)\14. Klangsprang.wav
Peak level 36.5 %
Extraction speed 2.0 X
Track quality 100.0 %
Test CRC 2CB31598
Copy CRC 2CB31598
Track not present in AccurateRip database
Copy OK
None of the tracks are present in the AccurateRip database
No errors occurred
End of status report
==== Log checksum EE40FB760DA7703E6322471305FCE83CF3859A4FD53A78529D27B02E11B5AB4B ====
 
Содержание индексной карты (.CUE)
REM GENRE Jazz
REM DATE 2016
REM DISCID 8C0DFC0E
REM COMMENT "ExactAudioCopy v1.0b3"
PERFORMER "Stian Omen.s"
TITLE "Klangkammer 2"
FILE "01. Klanghymne En.wav" WAVE
TRACK 01 AUDIO
TITLE "Klanghymne En"
PERFORMER "Stian Omen.s"
INDEX 01 00:00:00
FILE "02. Kammerrytme En.wav" WAVE
TRACK 02 AUDIO
TITLE "Kammerrytme En"
PERFORMER "Stian Omen.s"
INDEX 01 00:00:00
FILE "03. Klangsalme En.wav" WAVE
TRACK 03 AUDIO
TITLE "Klangsalme En"
PERFORMER "Stian Omen.s"
INDEX 01 00:00:00
FILE "04. Fluktkammer.wav" WAVE
TRACK 04 AUDIO
TITLE "Fluktkammer"
PERFORMER "Stian Omen.s"
INDEX 01 00:00:00
FILE "05. Klangsvev.wav" WAVE
TRACK 05 AUDIO
TITLE "Klangsvev"
PERFORMER "Stian Omen.s"
INDEX 01 00:00:00
FILE "06. Klangtilstand.wav" WAVE
TRACK 06 AUDIO
TITLE "Klangtilstand"
PERFORMER "Stian Omen.s"
INDEX 01 00:00:00
FILE "07. Kammerrytme To.wav" WAVE
TRACK 07 AUDIO
TITLE "Kammerrytme To"
PERFORMER "Stian Omen.s"
INDEX 01 00:00:00
FILE "08. Klanghymne To.wav" WAVE
TRACK 08 AUDIO
TITLE "Klanghymne To"
PERFORMER "Stian Omen.s"
INDEX 01 00:00:00
FILE "09. Smertekammer.wav" WAVE
TRACK 09 AUDIO
TITLE "Smertekammer"
PERFORMER "Stian Omen.s"
INDEX 01 00:00:00
FILE "10. Klangsalme To.wav" WAVE
TRACK 10 AUDIO
TITLE "Klangsalme To"
PERFORMER "Stian Omen.s"
INDEX 01 00:00:00
FILE "11. Klangsildring.wav" WAVE
TRACK 11 AUDIO
TITLE "Klangsildring"
PERFORMER "Stian Omen.s"
INDEX 01 00:00:00
FILE "12. Kammerdans.wav" WAVE
TRACK 12 AUDIO
TITLE "Kammerdans"
PERFORMER "Stian Omen.s"
INDEX 01 00:00:00
FILE "13. Klanghymne Tre.wav" WAVE
TRACK 13 AUDIO
TITLE "Klanghymne Tre"
PERFORMER "Stian Omen.s"
INDEX 01 00:00:00
FILE "14. Klangsprang.wav" WAVE
TRACK 14 AUDIO
TITLE "Klangsprang"
PERFORMER "Stian Omen.s"
INDEX 01 00:00:00
 
Об исполнителе (группе)
Stian Omenås (born 5 May 1980) is a Norwegian Jazz musician (trumpet), music conductor and composer from Valldal in Norddal, Sunnmøre, known as leader of his own band Stian Omenås Ensemble and ""PARALLAX".
Omenås was educated as a jazz trumpeter, trumpet teacher and composer on the Jazz program at Trondheim Musikkonsevatorium. He now resides in Oslo. He is influenced by Miles Davis, Stravinskij, Bartok, Messiaen, Bach, Ligeti, Tom Waits, Björk and Thomas Dybdahl, among others, and currently (2013) working with the bands Stian Omenås Ensemble, Kilombo, Marita Røstad Band, Astrid E. Pedersen Ensamble, Bungalow, Miles Davis Tribute, Circulez with Louis Sclavis, and a solo project.
 
Об альбоме (сборнике)
Recorded at Holmenkollen Chapel, Oslo, May 29-30th 2014.
 
Состав
Ensemble – Omenås Klangkammer:
Trumpet, Percussion – Stian Omenås
Bass – Mats Eilertsen
Drums, Percussion – Erik Nylander
Vibraphone, Percussion – Rob Waring
22:12
227
Нет комментариев. Ваш будет первым!