Поиск

(Avant-Garde Jazz, Contemporary) [CD] Jane Ira Bloom - Early Americans - 2016, FLAC (tracks+.cue), lossless

(Avant-Garde Jazz, Contemporary) [CD] Jane Ira Bloom - Early Americans - 2016, FLAC (tracks+.cue), lossless
Треклист:
Jane Ira Bloom / Early Americans
Жанр: Avant-Garde Jazz, Contemporary
Носитель: CD
Страна-производитель диска (релиза): USA
Год издания: 2016
Издатель (лейбл): Outline
Номер по каталогу: OTL142
Страна исполнителя (группы): USA
Аудиокодек: FLAC (*.flac)
Тип рипа: tracks+.cue
Битрейт аудио: lossless
Продолжительность: 52:00
Источник (релизер): what.cd (unknown)
Наличие сканов в содержимом раздачи: нет
Треклист:
1 Song Patrol 2:59
2 Dangerous Times 4:21
3 Nearly (for Kenny Wheeler) 1:52
4 Hips & Sticks 5:34
5 Singing The Triangle 5:23
6 Other Eyes 3:06
7 Rhyme Or Rhythm 3:24
8 Mind Gray River 5:29
9 Cornets Of Paradise 3:32
10 Say More 3:54
11 Gateway To Progress 5:48
12 Big Bill 4:23
13 Somewhere (Composed By – Leonard Bernstein, Stephen Sondheim) 2:33
 
Лог создания рипа
Exact Audio Copy V1.3 from 2. September 2016
EAC extraction logfile from 24. October 2016, 23:54
Jane Ira Bloom / Early Americans
Used drive : MATSHITADVD-RAM UJ8E2 S Adapter: 1 ID: 1
Read mode : Secure
Utilize accurate stream : Yes
Defeat audio cache : Yes
Make use of C2 pointers : No
Read offset correction : 103
Overread into Lead-In and Lead-Out : Yes
Fill up missing offset samples with silence : Yes
Delete leading and trailing silent blocks : No
Null samples used in CRC calculations : Yes
Used interface : Native Win32 interface for Win NT & 2000
Gap handling : Appended to previous track
Used output format : User Defined Encoder
Selected bitrate : 1024 kBit/s
Quality : High
Add ID3 tag : No
Command line compressor : C:\Program Files (x86)\Exact Audio Copy\Flac\flac.exe
Additional command line options : -8 -e -V -T "ARTIST=%artist%" -T "TITLE=%title%" -T "ALBUM=%albumtitle%" -T "DATE=%year%" -T "TRACKNUMBER=%tracknr%" -T "GENRE=%genre%" -T "PERFORMER=%albuminterpret%" -T "COMPOSER=%composer%" %haslyrics%--tag-from-file=LYRICS="%lyricsfile%"%haslyrics% -T "ALBUMARTIST=%albumartist%" -T "DISCNUMBER=%cdnumber%" -T "TOTALDISCS=%totalcds%" -T "TOTALTRACKS=%numtracks%" -T "COMMENT=%comment%" %source% -o %dest%
TOC of the extracted CD
Track | Start | Length | Start sector | End sector
---------------------------------------------------------
1 | 0:00.00 | 2:59.17 | 0 | 13441
2 | 2:59.17 | 4:21.05 | 13442 | 33021
3 | 7:20.22 | 1:52.08 | 33022 | 41429
4 | 9:12.30 | 5:34.06 | 41430 | 66485
5 | 14:46.36 | 5:23.15 | 66486 | 90725
6 | 20:09.51 | 3:06.39 | 90726 | 104714
7 | 23:16.15 | 3:24.20 | 104715 | 120034
8 | 26:40.35 | 5:29.37 | 120035 | 144746
9 | 32:09.72 | 3:32.66 | 144747 | 160712
10 | 35:42.63 | 3:54.41 | 160713 | 178303
11 | 39:37.29 | 5:48.27 | 178304 | 204430
12 | 45:25.56 | 4:23.31 | 204431 | 224186
13 | 49:49.12 | 2:33.27 | 224187 | 235688
Track 1
Filename C:\WhatRIP\Jane Ira Bloom - Early Americans (2016) [FLAC]\01 Song Patrol.wav
Pre-gap length 0:00:02.00
Peak level 95.8 %
Extraction speed 1.4 X
Track quality 100.0 %
Test CRC 91D8B51C
Copy CRC 91D8B51C
Track not present in AccurateRip database
Copy OK
Track 2
Filename C:\WhatRIP\Jane Ira Bloom - Early Americans (2016) [FLAC]\02 Dangerous Times.wav
Peak level 96.9 %
Extraction speed 0.8 X
Track quality 100.0 %
Test CRC FFA47D4E
Copy CRC FFA47D4E
Track not present in AccurateRip database
Copy OK
Track 3
Filename C:\WhatRIP\Jane Ira Bloom - Early Americans (2016) [FLAC]\03 Nearly.wav
Peak level 67.4 %
Extraction speed 0.7 X
Track quality 100.0 %
Test CRC 7214710D
Copy CRC 7214710D
Track not present in AccurateRip database
Copy OK
Track 4
Filename C:\WhatRIP\Jane Ira Bloom - Early Americans (2016) [FLAC]\04 Hips & Sticks.wav
Peak level 96.3 %
Extraction speed 0.9 X
Track quality 100.0 %
Test CRC 2944F499
Copy CRC 2944F499
Track not present in AccurateRip database
Copy OK
Track 5
Filename C:\WhatRIP\Jane Ira Bloom - Early Americans (2016) [FLAC]\05 Singing The Triangle.wav
Peak level 95.8 %
Extraction speed 1.0 X
Track quality 100.0 %
Test CRC 41904EA2
Copy CRC 41904EA2
Track not present in AccurateRip database
Copy OK
Track 6
Filename C:\WhatRIP\Jane Ira Bloom - Early Americans (2016) [FLAC]\06 Other Eyes.wav
Peak level 67.0 %
Extraction speed 1.0 X
Track quality 100.0 %
Test CRC F318110E
Copy CRC F318110E
Track not present in AccurateRip database
Copy OK
Track 7
Filename C:\WhatRIP\Jane Ira Bloom - Early Americans (2016) [FLAC]\07 Rhyme or Rhythm.wav
Peak level 96.8 %
Extraction speed 1.1 X
Track quality 100.0 %
Test CRC BD4CE8D1
Copy CRC BD4CE8D1
Track not present in AccurateRip database
Copy OK
Track 8
Filename C:\WhatRIP\Jane Ira Bloom - Early Americans (2016) [FLAC]\08 Mind Gray River.wav
Peak level 95.8 %
Extraction speed 1.2 X
Track quality 100.0 %
Test CRC 30D7DA8B
Copy CRC 30D7DA8B
Track not present in AccurateRip database
Copy OK
Track 9
Filename C:\WhatRIP\Jane Ira Bloom - Early Americans (2016) [FLAC]\09 Cornets of Paradise.wav
Peak level 96.8 %
Extraction speed 1.0 X
Track quality 99.9 %
Test CRC B3AF93D6
Copy CRC B3AF93D6
Track not present in AccurateRip database
Copy OK
Track 10
Filename C:\WhatRIP\Jane Ira Bloom - Early Americans (2016) [FLAC]\10 Say More.wav
Peak level 71.0 %
Extraction speed 1.3 X
Track quality 100.0 %
Test CRC 4B18B3BE
Copy CRC 4B18B3BE
Track not present in AccurateRip database
Copy OK
Track 11
Filename C:\WhatRIP\Jane Ira Bloom - Early Americans (2016) [FLAC]\11 Gateway to Progress.wav
Peak level 97.7 %
Extraction speed 1.4 X
Track quality 100.0 %
Test CRC 821568D4
Copy CRC 821568D4
Track not present in AccurateRip database
Copy OK
Track 12
Filename C:\WhatRIP\Jane Ira Bloom - Early Americans (2016) [FLAC]\12 Big Bill.wav
Peak level 96.2 %
Extraction speed 1.4 X
Track quality 100.0 %
Test CRC DA2731B1
Copy CRC DA2731B1
Track not present in AccurateRip database
Copy OK
Track 13
Filename C:\WhatRIP\Jane Ira Bloom - Early Americans (2016) [FLAC]\13 Somewhere.wav
Suspicious position 0:02:33
Peak level 62.8 %
Extraction speed 1.6 X
Track quality 99.5 %
Test CRC 57F335C9
Copy CRC 57F335C9
Track not present in AccurateRip database
Copy finished
None of the tracks are present in the AccurateRip database
There were errors
End of status report
---- CUETools DB Plugin V2.1.6
[CTDB TOCID: e3vgjLecIcR_wNcPXcfkB3G8Mso-] found
Submit result: already submitted
Track | CTDB Status
1 | (4/4) Accurately ripped
2 | (4/4) Accurately ripped
3 | (4/4) Accurately ripped
4 | (4/4) Accurately ripped
5 | (4/4) Accurately ripped
6 | (4/4) Accurately ripped
7 | (4/4) Accurately ripped
8 | (4/4) Accurately ripped
9 | (4/4) Accurately ripped
10 | (4/4) Accurately ripped
11 | (4/4) Accurately ripped
12 | (4/4) Accurately ripped
13 | (4/4) Accurately ripped
==== Log checksum 09E2A3943580CE9204733327BF9DFE65D18C980D5EDF943736DBC5DB31B54A07 ====
 
Содержание индексной карты (.CUE)
REM GENRE Jazz
REM DATE 2016
REM DISCID B40C460D
REM COMMENT "ExactAudioCopy v1.3"
PERFORMER "Jane Ira Bloom"
TITLE "Early Americans"
REM COMPOSER ""
FILE "01 Song Patrol.wav" WAVE
TRACK 01 AUDIO
TITLE "Song Patrol"
PERFORMER "Jane Ira Bloom"
REM COMPOSER ""
FLAGS DCP
INDEX 01 00:00:00
FILE "02 Dangerous Times.wav" WAVE
TRACK 02 AUDIO
TITLE "Dangerous Times"
PERFORMER "Jane Ira Bloom"
REM COMPOSER ""
FLAGS DCP
INDEX 01 00:00:00
FILE "03 Nearly.wav" WAVE
TRACK 03 AUDIO
TITLE "Nearly"
PERFORMER "Jane Ira Bloom"
REM COMPOSER ""
FLAGS DCP
INDEX 01 00:00:00
FILE "04 Hips & Sticks.wav" WAVE
TRACK 04 AUDIO
TITLE "Hips & Sticks"
PERFORMER "Jane Ira Bloom"
REM COMPOSER ""
FLAGS DCP
INDEX 01 00:00:00
FILE "05 Singing The Triangle.wav" WAVE
TRACK 05 AUDIO
TITLE "Singing The Triangle"
PERFORMER "Jane Ira Bloom"
REM COMPOSER ""
FLAGS DCP
INDEX 01 00:00:00
FILE "06 Other Eyes.wav" WAVE
TRACK 06 AUDIO
TITLE "Other Eyes"
PERFORMER "Jane Ira Bloom"
REM COMPOSER ""
FLAGS DCP
INDEX 01 00:00:00
FILE "07 Rhyme or Rhythm.wav" WAVE
TRACK 07 AUDIO
TITLE "Rhyme or Rhythm"
PERFORMER "Jane Ira Bloom"
REM COMPOSER ""
FLAGS DCP
INDEX 01 00:00:00
FILE "08 Mind Gray River.wav" WAVE
TRACK 08 AUDIO
TITLE "Mind Gray River"
PERFORMER "Jane Ira Bloom"
REM COMPOSER ""
FLAGS DCP
INDEX 01 00:00:00
FILE "09 Cornets of Paradise.wav" WAVE
TRACK 09 AUDIO
TITLE "Cornets of Paradise"
PERFORMER "Jane Ira Bloom"
REM COMPOSER ""
FLAGS DCP
INDEX 01 00:00:00
FILE "10 Say More.wav" WAVE
TRACK 10 AUDIO
TITLE "Say More"
PERFORMER "Jane Ira Bloom"
REM COMPOSER ""
FLAGS DCP
INDEX 01 00:00:00
FILE "11 Gateway to Progress.wav" WAVE
TRACK 11 AUDIO
TITLE "Gateway to Progress"
PERFORMER "Jane Ira Bloom"
REM COMPOSER ""
FLAGS DCP
INDEX 01 00:00:00
FILE "12 Big Bill.wav" WAVE
TRACK 12 AUDIO
TITLE "Big Bill"
PERFORMER "Jane Ira Bloom"
REM COMPOSER ""
FLAGS DCP
INDEX 01 00:00:00
FILE "13 Somewhere.wav" WAVE
TRACK 13 AUDIO
TITLE "Somewhere"
PERFORMER "Jane Ira Bloom"
REM COMPOSER ""
FLAGS DCP
INDEX 01 00:00:00
 
Об исполнителе (группе)
J.I. Bloom - American jazz saxophonist (soprano) and composer. Born : January 12, 1955 in Boston, Massachusetts.
 
Об альбоме (сборнике)
Composed By – Jane Ira Bloom (exerpt track 13)
 
Состав
Bass – Mark Helias
Drums – Bobby Previte
Soprano Saxophone – Jane Ira Bloom
22:11
247
Нет комментариев. Ваш будет первым!