Вы используете незарегистрированную версию компонента "Вкладки"!

Поиск

(Contemporary Jazz) [CD] Geri Allen - Grand River Crossings (Motown & Motor City Inspirations) - 2013, FLAC (tracks+.cue), lossless

(Contemporary Jazz) [CD] Geri Allen - Grand River Crossings (Motown & Motor City Inspirations) - 2013, FLAC (tracks+.cue), lossless
Треклист:
Geri Allen - Grand River Crossings (Motown & Motor City Inspirations)

Жанр: Contemporary Jazz
Носитель: CD
Страна-производитель диска (релиза): USA
Год издания: 2013
Издатель (лейбл): Motéma, Membran
Номер по каталогу: 233768
Страна исполнителя (группы): US
Аудиокодек: FLAC (*.flac)
Тип рипа: tracks+.cue
Битрейт аудио: lossless
Продолжительность: 00:54:33
Источник (релизер): www
Наличие сканов в содержимом раздачи: нет

Alto Saxophone – David McMurray
Piano – Geri Allen
Trumpet – Marcus Belgrave

01. Wanna Be Startin' Somethin' [02:21]
02. Tears of a Clown [05:31]
03. That Girl [06:05]
04. Grand River Crossings I [00:47]
05. The Smart Set [02:53]
06. Let It Be [03:57]
07. Space Odyssey [05:35]
08. In Appreciation [01:04]
09. Baby I Need Your Lovin' [04:29]
10. Itching in My Heart [01:55]
11. Stoned Love [03:40]
12. Grand River Crossings II [00:51]
13. Inner City Blues [04:26]
14. Save the Children [07:15]
15. Nancy Joe [03:39]

 
Лог создания рипа
Exact Audio Copy V1.3 from 2. September 2016
EAC extraction logfile from 2. June 2017, 2:51
Geri Allen / Grand River Crossings (Motown & Motor City Inspirations)
Used drive : TSSTcorpCDDVDW SH-224BB Adapter: 1 ID: 0
Read mode : Secure
Utilize accurate stream : Yes
Defeat audio cache : Yes
Make use of C2 pointers : No
Read offset correction : 6
Overread into Lead-In and Lead-Out : No
Fill up missing offset samples with silence : Yes
Delete leading and trailing silent blocks : No
Null samples used in CRC calculations : Yes
Used interface : Native Win32 interface for Win NT & 2000
Gap handling : Appended to previous track
Used output format : User Defined Encoder
Selected bitrate : 1024 kBit/s
Quality : High
Add ID3 tag : No
Command line compressor : C:\Program Files (x86)\flac-1.3.2-win\win32\flac.exe
Additional command line options : -8 -e -p -V -T "ARTIST=%artist%" -T "TITLE=%title%" -T "ALBUM=%albumtitle%" -T "DATE=%year%" -T "TRACKNUMBER=%tracknr%" -T "GENRE=%genre%" -T "PERFORMER=%albuminterpret%" -T "COMPOSER=%composer%" %haslyrics%--tag-from-file=LYRICS="%lyricsfile%"%haslyrics% -T "ALBUMARTIST=%albumartist%" -T "DISCNUMBER=%cdnumber%" -T "TOTALDISCS=%totalcds%" -T "TOTALTRACKS=%numtracks%" -T "COMMENT=%comment%" %source% -o %dest%
TOC of the extracted CD
Track | Start | Length | Start sector | End sector
---------------------------------------------------------
1 | 0:00.00 | 2:21.02 | 0 | 10576
2 | 2:21.02 | 5:31.23 | 10577 | 35424
3 | 7:52.25 | 6:05.15 | 35425 | 62814
4 | 13:57.40 | 0:47.51 | 62815 | 66390
5 | 14:45.16 | 2:53.56 | 66391 | 79421
6 | 17:38.72 | 3:57.30 | 79422 | 97226
7 | 21:36.27 | 5:35.61 | 97227 | 122412
8 | 27:12.13 | 1:04.18 | 122413 | 127230
9 | 28:16.31 | 4:29.22 | 127231 | 147427
10 | 32:45.53 | 1:55.62 | 147428 | 156114
11 | 34:41.40 | 3:40.05 | 156115 | 172619
12 | 38:21.45 | 0:51.36 | 172620 | 176480
13 | 39:13.06 | 4:26.16 | 176481 | 196446
14 | 43:39.22 | 7:15.20 | 196447 | 229091
15 | 50:54.42 | 3:39.29 | 229092 | 245545
Track 1
Filename Z:\windows\EAC rips\Geri Allen - Grand River Crossings (Motown & Motor City Inspirations) (2013) [FLAC] {233768}\01 - Wanna Be Startin' Somethin'.wav
Pre-gap length 0:00:02.00
Peak level 66.5 %
Extraction speed 3.9 X
Track quality 100.0 %
Test CRC 9EC2B309
Copy CRC 9EC2B309
Accurately ripped (confidence 8) [169B837A] (AR v2)
Copy OK
Track 2
Filename Z:\windows\EAC rips\Geri Allen - Grand River Crossings (Motown & Motor City Inspirations) (2013) [FLAC] {233768}\02 - Tears of a Clown.wav
Peak level 87.8 %
Extraction speed 4.2 X
Track quality 99.9 %
Test CRC EBF9000B
Copy CRC EBF9000B
Accurately ripped (confidence 8) [AC9903F5] (AR v2)
Copy OK
Track 3
Filename Z:\windows\EAC rips\Geri Allen - Grand River Crossings (Motown & Motor City Inspirations) (2013) [FLAC] {233768}\03 - That Girl.wav
Peak level 88.4 %
Extraction speed 4.8 X
Track quality 99.9 %
Test CRC 45107462
Copy CRC 45107462
Accurately ripped (confidence 9) [C1D9264D] (AR v2)
Copy OK
Track 4
Filename Z:\windows\EAC rips\Geri Allen - Grand River Crossings (Motown & Motor City Inspirations) (2013) [FLAC] {233768}\04 - Grand River Crossings I.wav
Peak level 86.8 %
Extraction speed 3.6 X
Track quality 100.0 %
Test CRC CE70AAE2
Copy CRC CE70AAE2
Accurately ripped (confidence 9) [6A3EE629] (AR v2)
Copy OK
Track 5
Filename Z:\windows\EAC rips\Geri Allen - Grand River Crossings (Motown & Motor City Inspirations) (2013) [FLAC] {233768}\05 - The Smart Set.wav
Peak level 88.4 %
Extraction speed 5.5 X
Track quality 100.0 %
Test CRC 6A73F153
Copy CRC 6A73F153
Accurately ripped (confidence 9) [DC11D45B] (AR v2)
Copy OK
Track 6
Filename Z:\windows\EAC rips\Geri Allen - Grand River Crossings (Motown & Motor City Inspirations) (2013) [FLAC] {233768}\06 - Let It Be.wav
Peak level 88.4 %
Extraction speed 4.9 X
Track quality 99.9 %
Test CRC 8E697E7D
Copy CRC 8E697E7D
Accurately ripped (confidence 9) [5C06CF63] (AR v2)
Copy OK
Track 7
Filename Z:\windows\EAC rips\Geri Allen - Grand River Crossings (Motown & Motor City Inspirations) (2013) [FLAC] {233768}\07 - Space Odyssey.wav
Peak level 83.7 %
Extraction speed 6.8 X
Track quality 100.0 %
Test CRC 4AFFFBD2
Copy CRC 4AFFFBD2
Accurately ripped (confidence 9) [89B9CF08] (AR v2)
Copy OK
Track 8
Filename Z:\windows\EAC rips\Geri Allen - Grand River Crossings (Motown & Motor City Inspirations) (2013) [FLAC] {233768}\08 - In Appreciation.wav
Peak level 67.0 %
Extraction speed 4.9 X
Track quality 100.0 %
Test CRC D609E7FC
Copy CRC D609E7FC
Accurately ripped (confidence 9) [62D80C6B] (AR v2)
Copy OK
Track 9
Filename Z:\windows\EAC rips\Geri Allen - Grand River Crossings (Motown & Motor City Inspirations) (2013) [FLAC] {233768}\09 - Baby I Need Your Lovin'.wav
Peak level 83.8 %
Extraction speed 7.1 X
Track quality 100.0 %
Test CRC 0F0049D3
Copy CRC 0F0049D3
Accurately ripped (confidence 9) [B16C8525] (AR v2)
Copy OK
Track 10
Filename Z:\windows\EAC rips\Geri Allen - Grand River Crossings (Motown & Motor City Inspirations) (2013) [FLAC] {233768}\10 - Itching in My Heart.wav
Peak level 89.4 %
Extraction speed 4.3 X
Track quality 99.9 %
Test CRC 152C427E
Copy CRC 152C427E
Accurately ripped (confidence 9) [98BFF0DA] (AR v2)
Copy OK
Track 11
Filename Z:\windows\EAC rips\Geri Allen - Grand River Crossings (Motown & Motor City Inspirations) (2013) [FLAC] {233768}\11 - Stoned Love.wav
Peak level 77.7 %
Extraction speed 5.7 X
Track quality 99.9 %
Test CRC 52D2B80A
Copy CRC 52D2B80A
Accurately ripped (confidence 9) [F8EDEC92] (AR v2)
Copy OK
Track 12
Filename Z:\windows\EAC rips\Geri Allen - Grand River Crossings (Motown & Motor City Inspirations) (2013) [FLAC] {233768}\12 - Grand River Crossings II.wav
Peak level 63.3 %
Extraction speed 2.7 X
Track quality 99.7 %
Test CRC F249762B
Copy CRC F249762B
Accurately ripped (confidence 9) [02D2AB7D] (AR v2)
Copy OK
Track 13
Filename Z:\windows\EAC rips\Geri Allen - Grand River Crossings (Motown & Motor City Inspirations) (2013) [FLAC] {233768}\13 - Inner City Blues.wav
Peak level 81.8 %
Extraction speed 6.3 X
Track quality 99.9 %
Test CRC 3DFA1D52
Copy CRC 3DFA1D52
Accurately ripped (confidence 9) [518C00E4] (AR v2)
Copy OK
Track 14
Filename Z:\windows\EAC rips\Geri Allen - Grand River Crossings (Motown & Motor City Inspirations) (2013) [FLAC] {233768}\14 - Save the Children.wav
Peak level 82.1 %
Extraction speed 7.4 X
Track quality 99.9 %
Test CRC B7C74B84
Copy CRC B7C74B84
Accurately ripped (confidence 9) [D49FA8A7] (AR v2)
Copy OK
Track 15
Filename Z:\windows\EAC rips\Geri Allen - Grand River Crossings (Motown & Motor City Inspirations) (2013) [FLAC] {233768}\15 - Nancy Joe.wav
Peak level 87.9 %
Extraction speed 8.2 X
Track quality 100.0 %
Test CRC C98A0E38
Copy CRC C98A0E38
Accurately ripped (confidence 9) [28554751] (AR v2)
Copy OK
All tracks accurately ripped
No errors occurred
End of status report
==== Log checksum 139F17378B452F9CB2DD1694A4A73478A55E899BE239D0AB98F86D85A00C96B8 ====
 
Содержание индексной карты (.CUE)
REM GENRE Jazz
REM DATE 2013
REM DISCID D90CC90F
REM COMMENT "ExactAudioCopy v1.3"
PERFORMER "Geri Allen"
TITLE "Grand River Crossings (Motown & Motor City Inspirations)"
REM COMPOSER ""
FILE "01 - Wanna Be Startin' Somethin'.wav" WAVE
TRACK 01 AUDIO
TITLE "Wanna Be Startin' Somethin'"
PERFORMER "Geri Allen"
REM COMPOSER ""
ISRC US9331312801
INDEX 01 00:00:00
FILE "02 - Tears of a Clown.wav" WAVE
TRACK 02 AUDIO
TITLE "Tears of a Clown"
PERFORMER "Geri Allen"
REM COMPOSER ""
ISRC US9331312802
INDEX 01 00:00:00
FILE "03 - That Girl.wav" WAVE
TRACK 03 AUDIO
TITLE "That Girl"
PERFORMER "Geri Allen"
REM COMPOSER ""
ISRC US9331312803
INDEX 01 00:00:00
FILE "04 - Grand River Crossings I.wav" WAVE
TRACK 04 AUDIO
TITLE "Grand River Crossings I"
PERFORMER "Geri Allen"
REM COMPOSER ""
ISRC US9331312804
INDEX 01 00:00:00
FILE "05 - The Smart Set.wav" WAVE
TRACK 05 AUDIO
TITLE "The Smart Set"
PERFORMER "Geri Allen"
REM COMPOSER ""
ISRC US9331312805
INDEX 01 00:00:00
FILE "06 - Let It Be.wav" WAVE
TRACK 06 AUDIO
TITLE "Let It Be"
PERFORMER "Geri Allen"
REM COMPOSER ""
ISRC US9331312806
INDEX 01 00:00:00
FILE "07 - Space Odyssey.wav" WAVE
TRACK 07 AUDIO
TITLE "Space Odyssey"
PERFORMER "Geri Allen"
REM COMPOSER ""
ISRC US9331312807
INDEX 01 00:00:00
FILE "08 - In Appreciation.wav" WAVE
TRACK 08 AUDIO
TITLE "In Appreciation"
PERFORMER "Geri Allen"
REM COMPOSER ""
ISRC US9331312808
INDEX 01 00:00:00
FILE "09 - Baby I Need Your Lovin'.wav" WAVE
TRACK 09 AUDIO
TITLE "Baby I Need Your Lovin'"
PERFORMER "Geri Allen"
REM COMPOSER ""
ISRC US9331312809
INDEX 01 00:00:00
FILE "10 - Itching in My Heart.wav" WAVE
TRACK 10 AUDIO
TITLE "Itching in My Heart"
PERFORMER "Geri Allen"
REM COMPOSER ""
ISRC US9331312810
INDEX 01 00:00:00
FILE "11 - Stoned Love.wav" WAVE
TRACK 11 AUDIO
TITLE "Stoned Love"
PERFORMER "Geri Allen"
REM COMPOSER ""
ISRC US9331312811
INDEX 01 00:00:00
FILE "12 - Grand River Crossings II.wav" WAVE
TRACK 12 AUDIO
TITLE "Grand River Crossings II"
PERFORMER "Geri Allen"
REM COMPOSER ""
ISRC US9331312811
INDEX 01 00:00:00
FILE "13 - Inner City Blues.wav" WAVE
TRACK 13 AUDIO
TITLE "Inner City Blues"
PERFORMER "Geri Allen"
REM COMPOSER ""
ISRC US9331312813
INDEX 01 00:00:00
FILE "14 - Save the Children.wav" WAVE
TRACK 14 AUDIO
TITLE "Save the Children"
PERFORMER "Geri Allen"
REM COMPOSER ""
ISRC US9331312814
INDEX 01 00:00:00
FILE "15 - Nancy Joe.wav" WAVE
TRACK 15 AUDIO
TITLE "Nancy Joe"
PERFORMER "Geri Allen"
REM COMPOSER ""
ISRC US9331312815
INDEX 01 00:00:00
Any questions - support@pro-jazz.com.
Есть вопросы - support@pro-jazz.com
07:49
250
Нет комментариев. Ваш будет первым!